Засада / Stuck (2007) BDRip от AleksSin | P

 
Автор Сообщение

AleksSin ®

Пол:

Стаж: 5 лет 11 месяцев

Сообщений: 218



Награды: 4 (Подробнее)

Mega Seeder 2 (Количество: 1) Mega Seeder 1 (Количество: 1) Mega Seeder 4 (Количество: 1)
Торрент-статистика

Создавать темы 29-Мар-2016 15:40

[Цитировать]

Засада / StuckГод выхода: 2007
Жанр: триллер, драма, комедия
Страна: Канада, Великобритания, США, Германия
Студия: Amicus Entertainment, Prodigy Pictures, Tumidor
Продолжительность: 01:25:21
Перевод: Профессиональный многоголосый (R5)
Субтитры: нет
Режиссер: Стюарт Гордон
В ролях: Мена Сувари, Стивен Ри, Расселл Хорнсби, Кэролин Пёрди-Гордон, Лайонел Марк Смит, Уэйн Робсон, Р.Д. Рейд, Патрик МакКенна, Шарлин Ройер
О фильме:
Автомобиль Бренди потерял управление и она сбила бомжа, влетевшего прямо в лобовое стекло автомобиля. Опасаясь из-за этого инцендента потерять повышение по службе, она старается скрыть происшедшее и не оказывая ему никакой помощи, просто оставляет еще живого человека умирать в своем гараже. Но в скоре она понимает, что связана с пленником в кровавом… даже возмутительном сражении за выживание…

Файл
Кодек: XviD (AVI)
Качество: BDRip Исходник Blu-Ray Remux 1080p
Видео: 704x368 (1.91:1), 23.976 fps, XviD build 73 ~1980 kbps avg, 0.32 bit/pixel
Aудио: 48 kHz, AC3 Dolby Digital, 3/2 (L,C,R,l,r) + LFE ch, ~448 kbps
Семпл

MediaInfo

Общее
Полное имя : S:ФильмыЗасада. 2007. BDRip (AleksSin).avi
Формат : AVI
Формат/Информация : Audio Video Interleave
Размер файла : 1,45 Гбайт
Продолжительность : 1 ч. 25 м.
Общий поток : 2437 Кбит/сек
Программа кодирования : VirtualDubMod 1.5.10.3 | www.virtualdub-fr.org || (build 2550/release)
Библиотека кодирования : VirtualDubMod build 2550/release
Видео
Идентификатор : 0
Формат : MPEG-4 Visual
Профиль формата : Advanced Simple@L5
Параметр BVOP формата : 1
Параметр QPel формата : Нет
Параметр GMC формата : Без точки перехода
Параметр матрицы формата : Выборочная
Идентификатор кодека : XVID
Идентификатор кодека/Подсказка : XviD
Продолжительность : 1 ч. 25 м.
Битрейт : 1980 Кбит/сек
Ширина : 704 пикселя
Высота : 368 пикселей
Соотношение сторон : 1,913
Частота кадров : 23,976 (23976/1000) кадра/сек
Цветовое пространство : YUV
Субдискретизация насыщенности : 4:2:0
Битовая глубина : 8 бит
Тип развёртки : Прогрессивная
Метод сжатия : С потерями
Бит/(Пиксели*Кадры) : 0.319
Размер потока : 1,18 Гбайт (81%)
Библиотека кодирования : XviD 73
Аудио
Идентификатор : 1
Формат : AC-3
Формат/Информация : Audio Coding 3
Расширение режима : CM (complete main)
Параметр Endianness формата : Big
Идентификатор кодека : 2000
Продолжительность : 1 ч. 25 м.
Вид битрейта : Постоянный
Битрейт : 448 Кбит/сек
Каналы : 6 каналов
Расположение каналов : Front: L C R, Side: L R, LFE
Частота : 48,0 КГц
Частота кадров : 31,250 кадров/сек (1536 spf)
Метод сжатия : С потерями
Размер потока : 273 Мбайт (18%)
Выравнивание : Разделение по промежуткам
Продолжительность промежутка : 42 мс. (1,00 видеокадр)
Время предзагрузки промежутка : 500 мс.

Скриншоты

[Профиль] [ЛС]
Кто просматривает тему:

Форум Тема Автор Размер
R.G.TorrentFilm Video Засада / Stuck (2007) BDRip 720p от AleksSin | P AleksSin 3.32 GB
Показать сообщения:    

Текущее время: Сегодня 05:01

Часовой пояс: GMT



Вы не можете начинать темы
Вы не можете отвечать на сообщения
Вы не можете редактировать свои сообщения
Вы не можете удалять свои сообщения
Вы не можете голосовать в опросах
Вы не можете прикреплять файлы к сообщениям
Вы не можете скачивать файлы