Зараза / The Taint (Дрю Болдак / Drew Bolduc) [2010, США, Трэш, чёрная комедия, DVDRip] VO (ssvss) + Sub Eng + Original Eng

 
Автор Сообщение

TorrentFilm ®

Пол:

Стаж: 2 года

Сообщений: 7741



Награды: Нет

Торрент-статистика

Создавать темы 05-Янв-2015 00:00

[Цитировать]

Зараза / The Taint
Страна: США
Жанр: Tрэш, чёрная комедия
Год выпуска: 2010
Продолжительность: 01:09:54
Перевод: Одноголосый закадровый ssvss ( aka Стэн)
Cубтитры: английские
Оригинальная аудиодорожка: английский
Режиссер: Дрю Болдак / Drew Bolduc
В ролях: Дрю Болдак, Колин Уолш, Коди Креншо, Кеннет Холл, Габриэлла Герцберг
Описание: полнометражный дебют восходящей звезды американского трэша Дрю Болдака.
В результате загрязнения воды местные мужчины одного небольшого городка превращаются в кровожадных монстров, ненавидящих женщин. Высунув из ширинок свои пенисы и разбрызгивая семенную жидкость направо и налево, они гоняются за бедными перепуганными женщинами и убивают их различными изощрёнными способами...
Доп. информация: фильм содержит ненормативную лексику, сцены насилия и прочее непотребцтво!
Сэмпл: http://multi-up.com/961672
Качество видео: DVDRip
Формат видео: AVI
Видео: 720x416 (1.731:1), 23.976fps, XviD, 2174 kbps avg, 0,344 bit/pixel
Аудио: 48KHz, AC3, 2 ch, 256kbps avg
Аудио 2: 48KHz, AC3, 2 ch, 256kbps avg

MediaInfo

Общее
Полное имя : F:\A R C H I V E - [P L]\The Taint by Drew Bolduc\The Taint.avi
Формат : AVI
Формат/Информация : Audio Video Interleave
Размер файла : 1,46 Гбайт
Продолжительность : 1 ч. 9 м.
Общий поток : 2700 Кбит/сек
Программа кодирования : VirtualDubMod 1.5.10.3 | www.virtualdub-fr.org || (build 2550/release)
Библиотека кодирования : VirtualDubMod build 2550/release
Видео
Идентификатор : 0
Формат : MPEG-4 Visual
Профиль формата : Advanced Simple@L5
Параметр BVOP формата : 1
Параметр QPel формата : Нет
Параметр GMC формата : Без точки перехода
Параметр матрицы формата : Выборочная
Идентификатор кодека : XVID
Идентификатор кодека/Подсказка : XviD
Продолжительность : 1 ч. 9 м.
Битрейт : 2174 Кбит/сек
Ширина : 720 пикселей
Высота : 416 пикселей
Соотношение сторон : 1,731
Частота кадров : 23,976 кадра/сек
Цветовое пространство : YUV
Субдискретизация насыщенности : 4:2:0
Битовая глубина : 8 бит
Тип развёртки : Прогрессивная
Метод сжатия : С потерями
Бит/(Пиксели*Кадры) : 0.344
Размер потока : 1,21 Гбайт (82%)
Библиотека кодирования : XviD 73
Аудио #1
Идентификатор : 1
Формат : AC-3
Формат/Информация : Audio Coding 3
Расширение режима : CM (complete main)
Параметр Endianness формата : Big
Идентификатор кодека : 2000
Продолжительность : 1 ч. 9 м.
Вид битрейта : Постоянный
Битрейт : 256 Кбит/сек
Каналы : 2 канала
Расположение каналов : Front: L R
Частота : 48,0 КГц
Битовая глубина : 16 бит
Метод сжатия : С потерями
Размер потока : 128 Мбайт (9%)
Выравнивание : Разделение по промежуткам
Продолжительность промежутка : 42 мс. (1,00 видеокадр)
Время предзагрузки промежутка : 500 мс.
Аудио #2
Идентификатор : 2
Формат : AC-3
Формат/Информация : Audio Coding 3
Расширение режима : CM (complete main)
Параметр Endianness формата : Big
Идентификатор кодека : 2000
Продолжительность : 1 ч. 9 м.
Вид битрейта : Постоянный
Битрейт : 256 Кбит/сек
Каналы : 2 канала
Расположение каналов : Front: L R
Частота : 48,0 КГц
Битовая глубина : 16 бит
Метод сжатия : С потерями
Размер потока : 128 Мбайт (9%)
Выравнивание : Разделение по промежуткам
Продолжительность промежутка : 42 мс. (1,00 видеокадр)
Время предзагрузки промежутка : 500 мс.

Скриншот c названием фильма

Скриншоты

[Профиль] [ЛС]

Создавать темы 06-Авг-2015 22:50 (спустя 7 месяцев 1 день)

Топик был перенесен из форума Фильмы до 2014 года в форум Фильмы до 2012 года
sergej644
 

Создавать темы 12-Июн-2016 07:54 (спустя 1 год 5 месяцев)

Топик был перенесен из форума Фильмы 2011 года в форум Фильмы 2010 года
Russian Mafia
 
Показать сообщения:    

Текущее время: Сегодня 10:31

Часовой пояс: GMT



Вы не можете начинать темы
Вы не можете отвечать на сообщения
Вы не можете редактировать свои сообщения
Вы не можете удалять свои сообщения
Вы не можете голосовать в опросах
Вы не можете прикреплять файлы к сообщениям
Вы не можете скачивать файлы