Зараза / The Taint (Дрю Болдак / Drew Bolduc, Дэн Нельсон / Dan Nelson) [2010, США, Tрэш, чёрная комедия, постапокалипсис, драма, DVDRip] VO (ssvss aka Стэн)

 
Автор Сообщение

painkiller ®

Стаж: 2 года 3 месяца

Сообщений: 582



Награды: Нет

Торрент-статистика

Создавать темы 14-Авг-2014 13:02

[Цитировать]

Зараза / The Taint
Страна: США
Жанр: Tрэш, чёрная комедия, постапокалипсис, драма
Год выпуска: 2010
Продолжительность: 01:09:54
Перевод: Одноголосый закадровый ssvss (Стэн)
Cубтитры: нет
Оригинальная аудиодорожка: русский
Режиссер: Дрю Болдак / Drew Bolduc, Дэн Нельсон / Dan Nelson
В ролях: Drew Bolduc, Colleen Walsh, Cody Crenshaw, Kenneth Hall, Gabriella Herzberg, Richard Spencer...
Описание: В результате загрязнения воды местные мужчины одного небольшого городка превращаются в кровожадных монстров, ненавидящих женщин. Высунув из ширинок свои пенисы и разбрызгивая семенную жидкость направо и налево, они гоняются за бедными перепуганными женщинами и убивают их различными изощрёнными способами...
Доп. информация: фильм содержит ненормативную лексику, сцены насилия и прочее непотребцтво! Опасен для моска!! Не рекомендуется к просмотру юным впечатлительным особам, беременным и кормящим женщинам!!!

Качество видео: DVDRip
Формат видео: AVI
Видео: XVID, 656x368 (16:9), 23.976 fps, 1 355 Kbps
Аудио: MP3, 48.0 KHz, 128 Kbps, 2 ch., MPEG Audio
TRAILER №1 | TRAILER №2 | SCORE | NO COMMENTS

MediaInfo

GeneralComplete name : D:\A R C H I V E - [R T]\The Taint (2010).aviFormat : AVIFormat/Info : Audio Video InterleaveFile size : 746 MiBDuration : 1h 9mnOverall bit rate : 1 492 KbpsWriting application : VirtualDubMod 1.5.10.2 (build 2540/release)Writing library : VirtualDubMod build 2540/release
VideoID : 0Format : MPEG-4 VisualFormat profile : AdvancedSimple@L5Format settings, BVOP : YesFormat settings, QPel : NoFormat settings, GMC : No warppointsFormat settings, Matrix : Default (MPEG)Codec ID : XVIDCodec ID/Hint : XviDDuration : 1h 9mnBit rate : 1 355 KbpsWidth : 656 pixelsHeight : 368 pixelsDisplay aspect ratio : 16:9Frame rate : 23.976 fpsResolution : 24 bitsColorimetry : 4:2:0Scan type : ProgressiveBits/(Pixel*Frame) : 0.234Stream size : 677 MiB (91%)Writing library : XviD 1.2.1 (UTC 2008-12-04)
AudioID : 1Format : MPEG AudioFormat version : Version 1Format profile : Layer 3Codec ID : 55Codec ID/Hint : MP3Duration : 1h 9mnBit rate mode : ConstantBit rate : 128 KbpsChannel(s) : 2 channelsSampling rate : 48.0 KHzResolution : 16 bitsStream size : 64.0 MiB (9%)Alignment : Aligned on interleavesInterleave, duration : 42 ms (1.00 video frame)Interleave, preload duration : 504 msWriting library : LAME3.98rEncoding settings : -m s -V 4 -q 2 -lowpass 17 -b 128

Знаете ли вы, что...

... Премьеру фильма первоначально запланировали на 11 сентября 2010. Однако по соображениям этического порядка (в ленте есть сцена, где самолёт врезается в небоскрёб) и, что самое главное, чтобы избежать нежелательных ассоциаций с экологическим коллапсом в Мексиканском заливе - она была перенесена на год. В результате широкой публике фильм был продемонстрирован лишь в октябре 2011...

Скриншоты

[Профиль] [ЛС]

Создавать темы 06-Авг-2015 23:13 (спустя 11 месяцев 23 дня)

Топик был перенесен из форума Фильмы до 2014 года в форум Фильмы до 2012 года
sergej644
 

Создавать темы 12-Июн-2016 07:54 (спустя 1 год 9 месяцев)

Топик был перенесен из форума Фильмы 2011 года в форум Фильмы 2010 года
Russian Mafia
 
Показать сообщения:    

Текущее время: Сегодня 13:50

Часовой пояс: GMT



Вы не можете начинать темы
Вы не можете отвечать на сообщения
Вы не можете редактировать свои сообщения
Вы не можете удалять свои сообщения
Вы не можете голосовать в опросах
Вы не можете прикреплять файлы к сообщениям
Вы не можете скачивать файлы