Заражённая: Фаза 2 / Инфекция: Фаза 2 / Contracted: Phase II (Джош Форбс / Josh Forbes) [2015, США, Ужасы, триллер, драма, WEB-DLRip] VO (Хихикающий доктор) + Original Eng

 
Автор Сообщение

TorrentFilm ®

Пол:

Стаж: 2 года

Сообщений: 7741



Награды: Нет

Торрент-статистика

Создавать темы 10-Сен-2015 00:10

[Цитировать]

Заражённая: Фаза 2 / Инфекция: Фаза 2 / Contracted: Phase II
Страна: США
Жанр: Ужасы, триллер, драма
Год выпуска: 2015
Продолжительность: 01:18:23
Перевод: Одноголосый закадровый Хихикающий доктор
Cубтитры: нет
Оригинальная аудиодорожка: английский
Режиссер: Джош Форбс / Josh Forbes
В ролях: Мэтт Мерсер, Марианна Палка, Морган Питер Браун, Анна Лоре, Лорел Вэйл, Неджарра Таунсенд, Сюзанн Восс, Элис МакДональд, Кэролин Уильямс, Ной Дорси
Описание: Райли, герой первой части, пытается найти лекарство от вируса, которым заразила его Саманта, до того, как он поразит его и весь остальной мир.
Сэмпл: http://multi-up.com/1065235
Качество видео: WEB-DLRip
Формат видео: AVI
Видео: Xvid 704x288 23.98fps 1 912 Kbps
Аудио: Dolby AC3 44100Hz stereo 192kbps rus
Аудио 2: Dolby AC3 48000Hz 6ch 384kbps eng

MediaInfo

ormat : AVI
Format/Info : Audio Video Interleave
File size : 1.37 GiB
Duration : 1h 18mn
Overall bit rate : 2 502 Kbps
Writing application : VirtualDubMod 1.5.10.2 (build 2540/release)
Writing library : VirtualDubMod build 2540/release
Video
ID : 0
Format : MPEG-4 Visual
Format profile : Advanced Simple@L5
Format settings, BVOP : Yes
Format settings, QPel : No
Format settings, GMC : No warppoints
Format settings, Matrix : Custom
Codec ID : XVID
Codec ID/Hint : XviD
Duration : 1h 18mn
Bit rate : 1 912 Kbps
Width : 704 pixels
Height : 288 pixels
Display aspect ratio : 2.40:1
Frame rate : 23.976 fps
Resolution : 8 bits
Colorimetry : 4:2:0
Scan type : Progressive
Bits/(Pixel*Frame) : 0.393
Stream size : 1.05 GiB (76%)
Writing library : XviD 73
Audio #1
ID : 1
Format : AC-3
Format/Info : Audio Coding 3
Codec ID : 2000
Duration : 1h 18mn
Bit rate mode : Constant
Bit rate : 192 Kbps
Channel(s) : 2 channels
Channel positions : L R
Sampling rate : 44.1 KHz
Stream size : 108 MiB (8%)
Alignment : Split accross interleaves
Interleave, duration : 42 ms (1.00 video frame)
Interleave, preload duration : 500 ms
Audio #2
ID : 2
Format : AC-3
Format/Info : Audio Coding 3
Codec ID : 2000
Duration : 1h 18mn
Bit rate mode : Constant
Bit rate : 384 Kbps
Channel(s) : 6 channels
Channel positions : Front: L C R, Surround: L R, LFE
Sampling rate : 48.0 KHz
Stream size : 215 MiB (15%)
Alignment : Split accross interleaves
Interleave, duration : 42 ms (1.00 video frame)
Interleave, preload duration : 500 ms

Скриншот c названием фильма

Скриншоты

[Профиль] [ЛС]
Показать сообщения:    

Текущее время: Сегодня 10:51

Часовой пояс: GMT



Вы не можете начинать темы
Вы не можете отвечать на сообщения
Вы не можете редактировать свои сообщения
Вы не можете удалять свои сообщения
Вы не можете голосовать в опросах
Вы не можете прикреплять файлы к сообщениям
Вы не можете скачивать файлы