Запрещенная реальность (Константин Максимов) [2009 г., фантастика, боевик, BDRip 720p]

 
Автор Сообщение

painkiller ®

Стаж: 2 года 3 месяца

Сообщений: 582



Награды: Нет

Торрент-статистика

Создавать темы 14-Авг-2014 09:22

[Цитировать]

- Год выпуска: 2009
Страна: Россия, PS TVC Studio
Жанр: фантастика, боевик
Продолжительность: 01:33:16
Русские субтитры: нет-Режиссер:
  • Константин Максимов
В ролях:
  • Игорь Петренко
  • Александр Балуев
  • Любовь Толкалина
  • Владимир Вдовиченков
  • Лев Прыгунов и др.
-Описание: Он живет в одном мире, а во сне видит другой. Он встречает одну женщину, но узнает в ней другую. Он — Матвей Соболев, бывший агент военной контрразведки, но ему предстоит стать Воином Круга. Потому что равновесие между мирами нарушено. И Конкере уже нашел себе носителя…- -Качество: BDRip 720p
Формат: MKV
Видео кодек: H.264
Аудио кодек: DTS
Видео: H.264, 1280x544, 23,976 fps, 5207 kbps
Аудио: Русский: DTS 5.1, 48 kHz, 1536 kbps avg-05.01.2012 заменен видеоряд.

MediaInfo

General
Unique ID : 246877552174246436514741714751810418162 (0xB9BAE314973D37768096B4D2B79BB5F2)
Complete name : D:\Zapreshennaja.realnost.2009.BDRip.720p.mkv
Format : Matroska
File size : 4.38 GiB
Duration : 1h 33mn
Overall bit rate : 6 718 Kbps
Movie name : Запрещенная реальность
Encoded date : UTC 2012-01-05 16:11:57
Writing application : mkvmerge v5.1.0 ('And so it goes') built on Nov 28 2011 23:58:28
Writing library : libebml v1.2.3 + libmatroska v1.3.0
Video
ID : 1
Format : AVC
Format/Info : Advanced Video Codec
Format profile : High@L4.1
Format settings, CABAC : Yes
Format settings, ReFrames : 12 frames
Codec ID : V_MPEG4/ISO/AVC
Duration : 1h 33mn
Bit rate : 5 207 Kbps
Width : 1 280 pixels
Height : 544 pixels
Display aspect ratio : 2.35:1
Frame rate : 23.976 fps
Color space : YUV
Chroma subsampling : 4:2:0
Bit depth : 8 bits
Scan type : Progressive
Bits/(Pixel*Frame) : 0.312
Stream size : 3.31 GiB (76%)
Title : Запрещенная реальность
Writing library : x264 core 115 r1995 c1e60b9
Encoding settings : cabac=1 / ref=12 / deblock=1:-3:-3 / analyse=0x3:0x133 / me=umh / subme=10 / psy=0 / mixed_ref=0 / me_range=32 / chroma_me=1 / trellis=2 / 8x8dct=1 / cqm=0 / deadzone=21,11 / fast_pskip=1 / chroma_qp_offset=0 / threads=6 / sliced_threads=0 / nr=0 / decimate=1 / interlaced=0 / bluray_compat=0 / constrained_intra=0 / bframes=9 / b_pyramid=2 / b_adapt=2 / b_bias=0 / direct=3 / weightb=1 / open_gop=0 / weightp=2 / keyint=250 / keyint_min=23 / scenecut=40 / intra_refresh=0 / rc_lookahead=50 / rc=2pass / mbtree=1 / bitrate=5207 / ratetol=1.0 / qcomp=0.70 / qpmin=10 / qpmax=51 / qpstep=4 / cplxblur=20.0 / qblur=0.5 / vbv_maxrate=40000 / vbv_bufsize=30000 / nal_hrd=none / ip_ratio=1.40 / aq=1:1.00
Language : Russian
Audio
ID : 2
Format : DTS
Format/Info : Digital Theater Systems
Codec ID : A_DTS
Duration : 1h 33mn
Bit rate mode : Constant
Bit rate : 1 510 Kbps
Channel(s) : 6 channels
Channel positions : Front: L C R, Side: L R, LFE
Sampling rate : 48.0 KHz
Bit depth : 24 bits
Compression mode : Lossy
Stream size : 1 007 MiB (22%)
Title : DTS
Language : Russian
Menu
00:00:00.000 : ru:Chapter 01
00:06:52.120 : ru:Chapter 02
00:10:32.673 : ru:Chapter 03
00:18:19.515 : ru:Chapter 04
00:24:12.993 : ru:Chapter 05
00:26:05.355 : ru:Chapter 06
00:34:11.758 : ru:Chapter 07
00:39:12.975 : ru:Chapter 08
00:45:41.739 : ru:Chapter 09
00:51:42.015 : ru:Chapter 10
00:56:14.204 : ru:Chapter 11
01:02:51.601 : ru:Chapter 12
01:06:34.824 : ru:Chapter 13
01:11:37.668 : ru:Chapter 14
01:17:26.767 : ru:Chapter 15
01:26:30.727 : ru:Chapter 16
01:33:15.172 : ru:Chapter 17

Скриншоты

[Профиль] [ЛС]
Показать сообщения:    

Текущее время: Сегодня 15:39

Часовой пояс: GMT



Вы не можете начинать темы
Вы не можете отвечать на сообщения
Вы не можете редактировать свои сообщения
Вы не можете удалять свои сообщения
Вы не можете голосовать в опросах
Вы не можете прикреплять файлы к сообщениям
Вы не можете скачивать файлы