Запретное царство / The Forbidden Kingdom (2008) BDRip от GeneralFilm | D, A

 
Автор Сообщение

Белочка ®

Пол:

Стаж: 5 лет 1 месяц

Сообщений: 2089



Награды: 1 (Подробнее)

Girls (Количество: 1)
Торрент-статистика

Создавать темы 14-Окт-2014 12:10

[Цитировать]

Название: Запретное царство
Оригинальное название: The Forbidden Kingdom
Год выпуска: 2008
Жанр: Фэнтези, боевик, приключения
Выпущено: США, Китай, Relativity Media, Casey Silver Productions, Huayi Brothers Media, China Film Co-Production Corporation
Режиссер: Роб Минкофф
В ролях: Джет Ли, Джеки Чан, Майкл Ангарано, Лю Ифэй, Колин Чоу, Хуана Коллиньон, Морган Бенуа, Ли Бинбин, Джек Пособец, Томас МакДонелл
О фильме: Американский подросток Джейсон, основательно помешанный на кунг-фу во всех его проявлениях, от самого спорта до фильмов про него, делает удивительное открытие: в одном из магазинчиков в китайском квартале он находит легендарный посох великого воина Царя Обезьян…
Качество: BDRip исходник (BD-Remux)
Видео: XviD, 1415 Кбит/с, 720x304
Аудио 1: Русский, AC3, 6 ch, 384 Кбит/с | (дублированный)
Аудио 2: Русский, AC3, 2 ch, 192 Кбит/с | (Ю.Немахов)
Продолжительность: 01:44:26
Перевод: Дублированный, авторский

MediaInfo

General
Complete name : G:The Forbidden Kingdom 2008 BDRip 1.46.avi
Format : AVI
Format/Info : Audio Video Interleave
File size : 1.46 GiB
Duration : 1h 44mn
Overall bit rate : 2 006 Kbps
Writing application : VirtualDubModRus 1.5.10.2 (build 2542/release)
Writing library : VirtualDubMod build 2542/release
Video
ID : 0
Format : MPEG-4 Visual
Format profile : Advanced Simple@L5
Format settings, BVOP : 2
Format settings, QPel : No
Format settings, GMC : No warppoints
Format settings, Matrix : Default (H.263)
Muxing mode : Packed bitstream
Codec ID : XVID
Codec ID/Hint : XviD
Duration : 1h 44mn
Bit rate : 1 416 Kbps
Width : 720 pixels
Height : 304 pixels
Display aspect ratio : 2.35:1
Frame rate : 23.976 fps
Color space : YUV
Chroma subsampling : 4:2:0
Bit depth : 8 bits
Scan type : Progressive
Compression mode : Lossy
Bits/(Pixel*Frame) : 0.270
Stream size : 1.03 GiB (71%)
Writing library : XviD 57
Audio #1
ID : 1
Format : AC-3
Format/Info : Audio Coding 3
Mode extension : CM (complete main)
Format settings, Endianness : Big
Codec ID : 2000
Duration : 1h 44mn
Bit rate mode : Constant
Bit rate : 384 Kbps
Channel(s) : 6 channels
Channel positions : Front: L C R, Side: L R, LFE
Sampling rate : 48.0 KHz
Bit depth : 16 bits
Compression mode : Lossy
Stream size : 287 MiB (19%)
Alignment : Split accross interleaves
Interleave, duration : 42 ms (1.00 video frame)
Interleave, preload duration : 500 ms
Audio #2
ID : 2
Format : AC-3
Format/Info : Audio Coding 3
Mode extension : CM (complete main)
Format settings, Endianness : Big
Codec ID : 2000
Duration : 1h 44mn
Bit rate mode : Constant
Bit rate : 192 Kbps
Channel(s) : 2 channels
Channel positions : Front: L R
Sampling rate : 48.0 KHz
Bit depth : 16 bits
Compression mode : Lossy
Stream size : 143 MiB (10%)
Alignment : Split accross interleaves
Interleave, duration : 42 ms (1.00 video frame)
Interleave, preload duration : 500 ms

Скриншоты

Релиз от:
[Профиль] [ЛС]
Показать сообщения:    

Текущее время: Сегодня 20:43

Часовой пояс: GMT



Вы не можете начинать темы
Вы не можете отвечать на сообщения
Вы не можете редактировать свои сообщения
Вы не можете удалять свои сообщения
Вы не можете голосовать в опросах
Вы не можете прикреплять файлы к сообщениям
Вы не можете скачивать файлы