Запретная зона / Chernobyl Diaries (2012) BDRemux 1080p | D

 
Автор Сообщение

sergej644 ®

Пол:

Стаж: 4 года 11 месяцев

Сообщений: 6043

Откуда: Soviet Union



Награды: Нет

Торрент-статистика

Создавать темы 05-Ноя-2014 16:22

[Цитировать]

Информация о фильме
Название: Запретная зона
Оригинальное название: Chernobyl Diaries
Год выхода: 2012
Жанр: ужасы
Режиссер: Брэдли Паркер / Bradley Parker
В ролях: Ингрид Болсай Бердал, Дмитрий Дьяченко, Оливия Дадли, Девин Келли, Джесси МакКартни, Натан Филлипс, Джонатан Садовский, Милош Тимотиевич, Милутин Милошевич, Иван Джорджевич
О фильме:
Шестеро молодых туристов-экстремалов прибыли на каникулы в Украину. Узнав о том, что в Зону отчуждения устраиваются экскурсии, они нанимают гида и отправляются за незабываемыми впечатлениями. И таковые не заставляют их долго ждать. Казалось, радиоактивный город пуст и заброшен. Там не осталось ничего живого. Но как только солнце прячется за горизонт, Припять оживает. Нечеловеческие крики сотрясают ночной воздух. Незадачливых путешественников охватывают ужас и паника. Они понимают, что не одни в этом мёртвом городе.
Страна: США
Продолжительность: 01:28:23
Перевод: Профессиональный (дублированный) R5
Файл
Кодек: MKV
Качество: BDRemux 1080p
Видео: 28533 kbps / 1920x1080 / 23,976 fps
Аудио1: AC3 / 5.1 / 48 kHz / 384 kbps / 16 bits |Dub|
Аудио2:DTS-HD Master Audio / 5.1 / 48 kHz / 1813 kbps / 16 bits (DTS Core: 5.1 / 48 kHz / 1510 kbps / 16 bits) |original|
Субтитры: русские (автор - 107miller), английские

〤 ОтчетМедиаИнфо 〤

General
Unique ID : 170776705370113498434662248620756906519 (0x807A65A6390E6A189673250F1CFD3217)
Complete name : F:HDЗапретная зона.2012.Blu-Ray.Remux.(1080p).mkv
Format : Matroska
Format version : Version 2
File size : 19.0 GiB
Duration : 1h 28mn
Overall bit rate mode : Variable
Overall bit rate : 30.7 Mbps
Encoded date : UTC 2012-10-07 13:32:54
Writing application : mkvmerge v5.8.0 ('No Sleep / Pillow') built on Sep 2 2012 15:37:04
Writing library : libebml v1.2.3 + libmatroska v1.3.0
Video
ID : 1
Format : AVC
Format/Info : Advanced Video Codec
Format profile : High@L4.1
Format settings, CABAC : Yes
Format settings, ReFrames : 4 frames
Format settings, GOP : M=3, N=24
Muxing mode : Container profile=Unknown@0.0
Codec ID : V_MPEG4/ISO/AVC
Duration : 1h 28mn
Bit rate mode : Variable
Bit rate : 28.2 Mbps
Maximum bit rate : 35.0 Mbps
Width : 1 920 pixels
Height : 1 080 pixels
Display aspect ratio : 16:9
Frame rate : 23.976 fps
Standard : NTSC
Color space : YUV
Chroma subsampling : 4:2:0
Bit depth : 8 bits
Scan type : Progressive
Bits/(Pixel*Frame) : 0.567
Stream size : 17.4 GiB (92%)
Default : Yes
Forced : No
Color primaries : BT.709-5, BT.1361, IEC 61966-2-4, SMPTE RP177
Transfer characteristics : BT.709-5, BT.1361
Matrix coefficients : BT.709-5, BT.1361, IEC 61966-2-4 709, SMPTE RP177
Audio #1
ID : 2
Format : AC-3
Format/Info : Audio Coding 3
Mode extension : CM (complete main)
Format settings, Endianness : Big
Codec ID : A_AC3
Duration : 1h 28mn
Bit rate mode : Constant
Bit rate : 384 Kbps
Channel(s) : 6 channels
Channel positions : Front: L C R, Side: L R, LFE
Sampling rate : 48.0 KHz
Bit depth : 16 bits
Compression mode : Lossy
Stream size : 243 MiB (1%)
Language : Russian
Default : Yes
Forced : No
Audio #2
ID : 3
Format : DTS
Format/Info : Digital Theater Systems
Format profile : MA / Core
Codec ID : A_DTS
Duration : 1h 28mn
Bit rate mode : Variable
Bit rate : 1 561 Kbps / 1 510 Kbps
Channel(s) : 6 channels
Channel positions : Front: L C R, Side: L R, LFE
Sampling rate : 48.0 KHz
Bit depth : 16 bits
Compression mode : Lossless / Lossy
Language : English
Default : No
Forced : No
Text #1
ID : 4
Format : UTF-8
Codec ID : S_TEXT/UTF8
Codec ID/Info : UTF-8 Plain Text
Title : 107miller
Language : Russian
Default : No
Forced : No
Text #2
ID : 5
Format : UTF-8
Codec ID : S_TEXT/UTF8
Codec ID/Info : UTF-8 Plain Text
Language : English
Default : No
Forced : No
Menu
00:00:00.000 : :Chapter 01
00:05:30.079 : :Chapter 02
00:13:55.835 : :Chapter 03
00:24:35.640 : :Chapter 04
00:35:42.390 : :Chapter 05
00:48:37.456 : :Chapter 06
01:00:28.499 : :Chapter 07
01:07:00.307 : :Chapter 08
01:14:31.133 : :Chapter 09
01:20:37.499 : :Chapter 10

Скриншоты

[Профиль] [ЛС]
Показать сообщения:    

Текущее время: Сегодня 06:11

Часовой пояс: GMT



Вы не можете начинать темы
Вы не можете отвечать на сообщения
Вы не можете редактировать свои сообщения
Вы не можете удалять свои сообщения
Вы не можете голосовать в опросах
Вы не можете прикреплять файлы к сообщениям
Вы не можете скачивать файлы