Заповедные острова Кандалакшского залива (Артур Бергарт) [2013, Документальный, позновательный, HDTV 1080i, RU]

 
Автор Сообщение

TorrentFilm ®

Пол:

Стаж: 2 года

Сообщений: 7741



Награды: Нет

Торрент-статистика

Создавать темы 16-Фев-2015 00:01

[Цитировать]

Заповедные острова Кандалакшского залива
Год выпуска: 2013
Страна: Россия
Студия: RTG Production Studios
Жанр: Документальный, позновательный
Продолжительность: 00:25:52
Перевод: Не требуется
Русские субтитры: нет
Режиссер: Артур Бергарт
Описание:
На нашей планете еще остались места, которые человек старается сохранить в нетронутом, первозданном состоянии. Мало кому случалось здесь побывать. Тут господствует природа, а людям отведена лишь небольшая, но исключительно важная роль защитников и наблюдателей. На севере России раскинул свои владения Кандалакшский государственный природный заповедник. Строгий и холодный с первого взгляда, он полон жизни и великолепия. Путешествие по небольшой части Кандалакшского заповедника, островам Белого моря, поможет понять, почему эти территории так строго охраняют, от кого и, главное, зачем?
Сэмпл: http://multi-up.com/1032822
Тип релиза: HDTV 1080i
Контейнер: TS
Видео: AVC H.264, 1920x1080i (16:9), 25 fps, 12 700 kbps, 0.244 bits/pixel
Аудио: русский, MP2, 48 kHz, 2ch, 192 kbps

MediaInfo

GeneralID : 1 (0x1)Complete name : C:\Заповедные острова Кандалакшского залива_2013_HDTV 1080i_RU_-dean10.tsFormat : MPEG-TSFile size : 2.44 GiBDuration : 25mn 52sOverall bit rate mode : VariableOverall bit rate : 13.5 Mbps
VideoID : 1001 (0x3E9)Menu ID : 17002 (0x426A)Format : AVCFormat/Info : Advanced Video CodecFormat profile : Main@L4.0Format settings, CABAC : YesFormat settings, ReFrames : 3 framesCodec ID : 27Duration : 25mn 52sBit rate : 12.7 MbpsWidth : 1 920 pixelsHeight : 1 080 pixelsDisplay aspect ratio : 16:9Frame rate : 25.000 fpsStandard : ComponentColor space : YUVChroma subsampling : 4:2:0Bit depth : 8 bitsScan type : InterlacedScan order : Top Field FirstBits/(Pixel*Frame) : 0.244Stream size : 2.29 GiB (94%)Color primaries : BT.709Transfer characteristics : BT.709Matrix coefficients : BT.709Color range : Limited
AudioID : 1101 (0x44D)Menu ID : 17002 (0x426A)Format : MPEG AudioFormat version : Version 1Format profile : Layer 2Codec ID : 3Duration : 25mn 52sBit rate mode : ConstantBit rate : 192 KbpsChannel(s) : 2 channelsSampling rate : 48.0 KHzCompression mode : LossyDelay relative to video : -40msStream size : 35.5 MiB (1%)Language : Russian

Скриншоты

[Профиль] [ЛС]
Показать сообщения:    

Текущее время: Сегодня 14:19

Часовой пояс: GMT



Вы не можете начинать темы
Вы не можете отвечать на сообщения
Вы не можете редактировать свои сообщения
Вы не можете удалять свои сообщения
Вы не можете голосовать в опросах
Вы не можете прикреплять файлы к сообщениям
Вы не можете скачивать файлы