Заповедная Россия. Кедровая падь [2013, Документальный, HDTV 1080i]

 
Автор Сообщение

TorrentFilm ®

Пол:

Стаж: 2 года

Сообщений: 7741



Награды: Нет

Торрент-статистика

Создавать темы 25-Янв-2015 00:00

[Цитировать]

Заповедная Россия. Кедровая падь
Год выпуска: 2013
Страна: Россия
Жанр: Документальный
Продолжительность: 00:27:18
Перевод: Не требуется
Описание: Первые лучи солнца озаряют берег Тихого океана, спящие мысы и сопки. В кристально чистых заводях отражаются силуэты восточно-маньчжурских гор. Отсюда начинается заповедник Кедровая Падь - крохотный островок нетронутой уссурийской тайги. Испокон веков под сенью этого дикого таежного сада находили себе пропитание кабаны и пятнистые олени, которые в свою очередь служили залогом выживания для диких кошек Приморья. Но XX век с его индустриальным освоением нарушил баланс Природы. Нещадная вырубка лесов для строительства железной дороги оголяла сопку за сопкой. В бушевавших во время засух пожарах гибли сотни животных. Исконные угодья леопарда и тигра стремительно сокращались, а квоты на их отстрел увеличивались. Единственным спасением оставался заповедник.
Доп. информация: IPTV Remux (запись потока без перекодирования)
Тип релиза: HDTV 1080i
Контейнер: TS
Видео: AVC H.264, 1920x1080i (16:9), 25 fps, 7284 kbps , 0.141 bits/pixel
Аудио: MPEG Audio, 2 channels, Joint stereo, 192 kbps, 48KHz

MediaInfo

GeneralID : 1 (0x1)Complete name : Заповедная Россия. Кедровая падь.tsFormat : MPEG-TSFile size : 1.50 GiBDuration : 27mn 18sOverall bit rate mode : VariableOverall bit rate : 7 867 Kbps
VideoID : 1012 (0x3F4)Menu ID : 1 (0x1)Format : AVCFormat/Info : Advanced Video CodecFormat profile : High@L4.0Format settings, CABAC : YesFormat settings, ReFrames : 4 framesFormat settings, GOP : M=4, N=32Codec ID : 27Duration : 27mn 18sBit rate : 7 284 KbpsWidth : 1 920 pixelsHeight : 1 080 pixelsDisplay aspect ratio : 16:9Frame rate : 25.000 fpsColor space : YUVChroma subsampling : 4:2:0Bit depth : 8 bitsScan type : MBAFFBits/(Pixel*Frame) : 0.141Stream size : 1.39 GiB (93%)
AudioID : 1102 (0x44E)Menu ID : 1 (0x1)Format : MPEG AudioFormat version : Version 1Format profile : Layer 2Mode : Joint stereoMode extension : Intensity Stereo + MS StereoCodec ID : 3Duration : 27mn 18sBit rate mode : ConstantBit rate : 192 KbpsChannel(s) : 2 channelsSampling rate : 48.0 KHzCompression mode : LossyStream size : 37.5 MiB (2%)Language : English

Скриншоты

[Профиль] [ЛС]
Показать сообщения:    

Текущее время: Сегодня 08:20

Часовой пояс: GMT



Вы не можете начинать темы
Вы не можете отвечать на сообщения
Вы не можете редактировать свои сообщения
Вы не можете удалять свои сообщения
Вы не можете голосовать в опросах
Вы не можете прикреплять файлы к сообщениям
Вы не можете скачивать файлы