Записи Левенджера / The Levenger Tapes (2013) HDTVRip от MediaClub | P

 
Автор Сообщение

sergej644 ®

Пол:

Стаж: 4 года 11 месяцев

Сообщений: 6040

Откуда: Soviet Union



Награды: Нет

Торрент-статистика

Создавать темы 12-Дек-2014 16:03

[Цитировать]

Информация о фильме
Название: Записи Левенджера
Оригинальное название: The Levenger Tapes
Год выхода: 2013
Жанр: Ужасы, триллер
Режиссер: Марк Эдвин Робинсон
В ролях: Джоанна Э. Брэдди, Лили Мирожник, Морган Крантц, Крис Малки, Аарон Дженнингс Хартнелл, Мария Олсен, Джефф Прайд, Джон Розенфельд, Кемден Сингер, Том Вирту
О фильме:
Детективы смотрят найденную на месте преступления видеозапись, которая, как они надеются, поможет им определить местонахождение трех пропавших без вести студентов. С каждым просмотренным кадром пленки им становится все более и более тревожно за их судьбу: на записи студенты находят окровавленное платье 8-летней девочки, поисками которой они и занялись…

Страна: США
Студия: Castlight Pictures
Продолжительность: 01:28:55
Перевод: Профессиональный многоголосый
Файл
Кодек: XviD
Качество: HDTVRip
Видео: 1991 Кбит/с, 720x400, 25.000 кадр/с
Звук: Русский (АС3, 6 ch, 448 Кбит/с)
Семпл

Скриншоты

MI

Общее
Полное имя : Zapisi.Levendzhera.2013.HDTVRip.MediaClub.avi
Формат : AVI
Формат/Информация : Audio Video Interleave
Размер файла : 1,52 Гбайт
Продолжительность : 1 ч. 28 м.
Общий поток : 2448 Кбит/сек
Название фильма : MediaClub
Программа кодирования : VirtualDubMod 1.5.10.2 (build 2540/release)
Библиотека кодирования : VirtualDubMod build 2540/release
Видео
Идентификатор : 0
Формат : MPEG-4 Visual
Профиль формата : Advanced Simple@L5
Параметр BVOP формата : 2
Параметр QPel формата : Нет
Параметр GMC формата : Без точки перехода
Параметр матрицы формата : Default (MPEG)
Идентификатор кодека : XVID
Идентификатор кодека/Подсказка : XviD
Продолжительность : 1 ч. 28 м.
Битрейт : 1991 Кбит/сек
Ширина : 720 пикселей
Высота : 400 пикселей
Соотношение сторон : 16:9
Частота кадров : 25,000 кадров/сек
Цветовое пространство : YUV
Субдискретизация насыщенности : 4:2:0
Битовая глубина : 8 бит
Тип развёртки : Прогрессивная
Метод сжатия : С потерями
Бит/(Пиксели*Кадры) : 0.276
Размер потока : 1,24 Гбайт (81%)
Библиотека кодирования : XviD 65
Аудио
Идентификатор : 1
Формат : AC-3
Формат/Информация : Audio Coding 3
Расширение режима : CM (complete main)
Параметр Endianness формата : Big
Идентификатор кодека : 2000
Продолжительность : 1 ч. 28 м.
Вид битрейта : Постоянный
Битрейт : 448 Кбит/сек
Каналы : 6 каналов
Расположение каналов : Front: L C R, Side: L R, LFE
Частота : 48,0 КГц
Битовая глубина : 16 бит
Метод сжатия : С потерями
Размер потока : 285 Мбайт (18%)
Выравнивание : Разделение по промежуткам
Продолжительность промежутка : 40 мс. (1,00 видеокадр)
Время предзагрузки промежутка : 500 мс.
Релиз от:
[Профиль] [ЛС]
Кто просматривает тему:

Форум Тема Автор Размер
Шансон, авторская и военная песня (Author's Song) Владимир Высоцкий в записях Михаила Шемякина (7CD) - Коллекция - 1996 [MP3, tracks, 320 kbps] sergej644 939 MB
Rock (Rock)Кино (Виктор Цой) - Последние записи - 1990 (опубликовано 2002), FLAC (image+.cue), lossless sergej644 466 MB
Работа с носителями информации ImgBurn 2.5.8.0 - Программа для записи дисков x86 x64 ENG + RUS [16 Июня 2013] TorrentFilm 3 MB
Работа с носителями информации Sonic DigitalMedia Plus v7 [запись CD/DVD] TorrentFilm 130 MB
Apple Mac OS X (ОС и ПО) [SD] Умный будильник: фазы сна и запись ночных звуков / Smart Alarm Clock: sleep cycles & night sounds recording [8.1.2, Здоровье и фитнес, iOS 6.0, RUS] reversefile 49 MB
Программы [Плеер] World Radio FM with Music Record / Радио FM + запись музыки 1.0 [Android 4.1+, RUS + ENG] TorrentFilm 1 MB
Программы [Утилиты] Диктофон: запись звука, голоса / Voice Recorder: HD Audio Sound [Android, ENG] TorrentFilm 1 MB
Фильмы (HD DVD, Blu-ray и BDRemux) Ватиканские записи / The Vatican Tapes (2015) BDRemux 1080p | iTunes, L1 достали все 28.4 GB
Показать сообщения:    

Текущее время: Сегодня 00:40

Часовой пояс: GMT



Вы не можете начинать темы
Вы не можете отвечать на сообщения
Вы не можете редактировать свои сообщения
Вы не можете удалять свои сообщения
Вы не можете голосовать в опросах
Вы не можете прикреплять файлы к сообщениям
Вы не можете скачивать файлы