Запасной игрок [01-04 из 04] (2017) WEB-DLRip

 
Author Message

BOSS ®

Gender:

Longevity: 5 years 9 months

Posts: 14662

Location: ODESSA



: 22 ()

Mega Seeder 5 (1) Mega Seeder 2 (1) Mega Seeder 4 (1)
Торрент-статистика

Post 21-Jun-2020 06:04

[Quote]

Оригинальное название: Запасной игрок
Год выпуска: 2017
Жанр: Драма, спорт
Выпущено: Россия, ООО Продюсерская компания "Леандра" , Ökko
Режиссер: Петр Забелин
В ролях: Алексей Филимонов (II), Илья Носков, Артур Ваха, Константин Воробьёв, Екатерина Решетникова, Владимир Шевельков, Сергей Кошонин, Даниил Рожков, Максим Мацаков, Ирина Сотикова, Юлия Молчанова, Олег Чугунов, Владимир Шагин, Валерия Орлова
О фильме: Сашке Мохову всего 14 лет, но уже сейчас тренеры видят в нем огромный потенциал хоккеиста. Но Сашка относится к своему таланту, как к данности. Зависть и конкуренция со стороны «друзей» заставят его понять, что природное дарование – это не единственное условие появления талантливого человека...

Качество: WEB-DLRip
Видео: XviD build 73, 720x400 (16:9), 25.000 fps, ~ 1470 Kbps (~ 0.210 bit/pixel)
Аудио: 48.0 kHz, MP3, 2/0 ch, 192 kbps
Продолжительность: 4 x ~ 00:47:00
Перевод: Не требуется [Русский]
Cубтитры: нет

Скриншоты

MediaInfo

General
Complete name : D:RazdachiZapasnoy.Igrok.2017.WEB-DLRip.GeneralFilmE01.Zapasnoy.Igrok.avi
Format : AVI
Format/Info : Audio Video Interleave
File size : 557 MiB
Duration : 46 min 27 s
Overall bit rate : 1 677 kb/s
Writing application : VirtualDubMod 1.5.10.3 | www.virtualdub-fr.org || (build 2550/release)
Writing library : VirtualDubMod build 2550/release
Video
ID : 0
Format : MPEG-4 Visual
Format profile : Advanced Simple@L5
Format settings : BVOP1 / Custom Matrix
Format settings, BVOP : 1
Format settings, QPel : No
Format settings, GMC : No warppoints
Format settings, Matrix : Custom
Codec ID : XVID
Codec ID/Hint : XviD
Duration : 46 min 27 s
Bit rate : 1 475 kb/s
Width : 720 pixels
Height : 400 pixels
Display aspect ratio : 16:9
Frame rate : 25.000 FPS
Color space : YUV
Chroma subsampling : 4:2:0
Bit depth : 8 bits
Scan type : Progressive
Compression mode : Lossy
Bits/(Pixel*Frame) : 0.205
Stream size : 490 MiB (88%)
Writing library : XviD 73
Audio
ID : 1
Format : MPEG Audio
Format version : Version 1
Format profile : Layer 3
Codec ID : 55
Codec ID/Hint : MP3
Duration : 46 min 27 s
Bit rate mode : Constant
Bit rate : 192 kb/s
Channel(s) : 2 channels
Sampling rate : 48.0 kHz
Frame rate : 41.667 FPS (1152 SPF)
Compression mode : Lossy
Stream size : 63.8 MiB (11%)
Alignment : Aligned on interleaves
Interleave, duration : 40 ms (1.00 video frame)
Interleave, preload duratio : 504 ms
Writing library : LAME3.99r
Encoding settings : -m s -V 4 -q 2 -lowpass 18.6 -b 192
[Profile] [PM]
Display posts from previous:    

The time now is: Today 19:30

All times are GMT



You cannot post new topics in this forum
You cannot reply to topics in this forum
You cannot edit your posts in this forum
You cannot delete your posts in this forum
You cannot vote in polls in this forum
You cannot attach files in this forum
You cannot download files in this forum