Запасной игрок (Семен Тимошенко)[1954, комедия, DVDRip]

 
Автор Сообщение

sergej644 ®

Пол:

Стаж: 4 года 11 месяцев

Сообщений: 6041

Откуда: Soviet Union



Награды: Нет

Торрент-статистика

Создавать темы 22-Июл-2015 18:10

[Цитировать]

Название: Запасной игрок
Год выпуска: 1954
Жанр: Комедия
Выпущено: СССР
Режиссер: Семен Тимошенко
В ролях: Георгий Вицин, Владимир Кузнецов, Елена Тяпкина, Павел Кадочников, Татьяна Конюхова, Валентина Ушакова, Марк Бернес, Константин Адашевский, Владимир Белокуров, П. Поль, Александр Жуков, Э. Луценко, Антатолий Королькевич, Сергей Филиппов, Николай Рыбников
О фильме:
Заводская команда "Синих Стрел" выходит в финал и отправляется в Сухуми на теплоходе для встречи с "Вымпелом", считающимся фаворитом. На теплоходе разыгрывается великолепная комедия ситуаций: подающий надежды запасной игрок Веснушкин влюблен в гимнастку, опасаясь, что та предпочитает зазнавшегося старшего брата, лучшего игрока той же команды. На борту находится также актер кино Светланов, переодетый стариком Дедушкиным для лучшего проникновения в образ будущей роли. Сотрудники института геронтологии принимают старика за профессора из Москвы Бабушкина, думая, что тот таким образом решил поближе узнать своих подчиненных. Старший Веснушкин, выпив винца, обижает "пожилого" человека, а тот вызывает его на боксерский матч, имея в этом виде спорта приличный опыт. Все это сплетено в динамично развивающийся сюжет с остроумными диалогами, а кульминацией служит сам матч, в котором Веснушкин-младший обеспечивает команде победу, заменив травмированного вратаря и взяв одиннадцатиметровый. В доброй, уютной картине много превосходных, запоминающихся песен и танцев. Особо хочу выделить сцену прощания в порту ревнивого мужа (Филиппов) с женой. Сама по себе она бы сделала честь лучшим голливудским комедиям.
Качество: DVDRip исходник (DVD-5)
Видео: XviD, 2224 Кбит/с, 720x544
Аудио: Русский, AC3, 6 ch, 448 Кбит/с
Продолжительность: 01:18:07

MediaInfo

General
Complete name : G:Запасной игрок 1954 DVDRip.avi
Format : AVI
Format/Info : Audio Video Interleave
File size : 1.46 GiB
Duration : 1h 18mn
Overall bit rate : 2 682 Kbps
Writing application : VirtualDubModRus 1.5.10.2 (build 2542/release)
Writing library : VirtualDubMod build 2542/release
Video
ID : 0
Format : MPEG-4 Visual
Format profile : Advanced Simple@L5
Format settings, BVOP : 2
Format settings, QPel : No
Format settings, GMC : No warppoints
Format settings, Matrix : Default (H.263)
Codec ID : XVID
Codec ID/Hint : XviD
Duration : 1h 18mn
Bit rate : 2 225 Kbps
Width : 720 pixels
Height : 544 pixels
Display aspect ratio : 4:3
Frame rate : 25.000 fps
Color space : YUV
Chroma subsampling : 4:2:0
Bit depth : 8 bits
Scan type : Progressive
Compression mode : Lossy
Bits/(Pixel*Frame) : 0.227
Stream size : 1.21 GiB (83%)
Writing library : XviD 57
Audio
ID : 1
Format : AC-3
Format/Info : Audio Coding 3
Mode extension : CM (complete main)
Format settings, Endianness : Big
Codec ID : 2000
Duration : 1h 18mn
Bit rate mode : Constant
Bit rate : 448 Kbps
Channel(s) : 6 channels
Channel positions : Front: L C R, Side: L R, LFE
Sampling rate : 48.0 KHz
Bit depth : 16 bits
Compression mode : Lossy
Stream size : 250 MiB (17%)
Alignment : Split accross interleaves
Interleave, duration : 40 ms (1.00 video frame)
Interleave, preload duration : 500 ms

Скриншоты

[Профиль] [ЛС]

Создавать темы 06-Авг-2015 22:00 (спустя 15 дней)

Топик был перенесен из форума Кино СССР в форум Кино СССР
sergej644
 
Показать сообщения:    

Текущее время: Сегодня 12:46

Часовой пояс: GMT



Вы не можете начинать темы
Вы не можете отвечать на сообщения
Вы не можете редактировать свои сообщения
Вы не можете удалять свои сообщения
Вы не можете голосовать в опросах
Вы не можете прикреплять файлы к сообщениям
Вы не можете скачивать файлы