Западня Ферма / Fermat\'s Room (Луис Пьедрахита / Luis Piedrahita) [2007 г., Мистика, Триллер, DVDRip] DVO

 
Автор Сообщение

TorrentFilm ®

Пол:

Стаж: 2 года

Сообщений: 7741



Награды: Нет

Торрент-статистика

Создавать темы 14-Фев-2015 00:01

[Цитировать]

Западня Ферма / La habitacion de Fermat- Страна: Испания
Жанр: триллер, детектив
Год выпуска: 2007
Продолжительность: 01:28:12-Перевод: Профессиональный (двухголосый закадровый)
Cубтитры: нет-Режиссер: Луис Пьедрахита, Родриго Сопена / Luis Piedrahita, Rodrigo Sopena
В ролях: Луис Хомар, Аледжо Саурас, Елена Балестерос, Санти Милан, Хелена Карьон-Описание: Четверо математиков не подозревали о существовании друг друга, пока таинственный незнакомец не собрал их вместе для решения одной трудной головоломки. Хозяин заброшенного дома назвался Ферма, а своим гостям дал имена самых известных в истории математиков. Им предстоит провести два дня в четырёх стенах, которые неожиданно начнут медленно сдвигаться, грозя смертью тем, кто не сумеет разгадать тайну и назвать имя убийцы.-Доп. информация: Наслаждайтесь фильмом, дорогие любители триллеров
ps У режиссера смешная фамилия, но смотреть все же стоит)))
Сэмпл: http://multi-up.com/1032705-Качество видео: DVDRip
Формат видео: AVI
Видео: 688x368 (1.85:1), 25 fps, ~2 105 kbps avg, 0.333 bit/pixel
Аудио: 48 kHz, AC3 Dolby Digital, 3/2 (L,C,R,l,r) + LFE ch, ~256.00 kbps avg

MediaInfo

General
Complete name : D:\Zapadnja.ferma.2007 сравнить\Западня ферма (2007) By Crusstill+.avi
Format : AVI
Format/Info : Audio Video Interleave
File size : 1.46 GiB
Duration : 1h 28mn
Overall bit rate : 2 371 Kbps
Writing application : VirtualDubMod 1.5.4.1 (build 2066/release)
Writing library : VirtualDubMod build 2066/release
Video
ID : 0
Format : MPEG-4 Visual
Format profile : Advanced Simple@L5
Format settings, BVOP : 1
Format settings, QPel : No
Format settings, GMC : No warppoints
Format settings, Matrix : Custom
Codec ID : XVID
Codec ID/Hint : XviD
Duration : 1h 28mn
Bit rate : 2 105 Kbps
Width : 688 pixels
Height : 368 pixels
Display aspect ratio : 1.85:1
Frame rate : 25.000 fps
Color space : YUV
Chroma subsampling : 4:2:0
Bit depth : 8 bits
Scan type : Progressive
Compression mode : Lossy
Bits/(Pixel*Frame) : 0.333
Stream size : 1.30 GiB (89%)
Writing library : XviD 64
Audio
ID : 1
Format : AC-3
Format/Info : Audio Coding 3
Mode extension : CM (complete main)
Format settings, Endianness : Big
Codec ID : 2000
Duration : 1h 28mn
Bit rate mode : Constant
Bit rate : 256 Kbps
Channel(s) : 6 channels
Channel positions : Front: L C R, Side: L R, LFE
Sampling rate : 48.0 KHz
Bit depth : 16 bits
Compression mode : Lossy
Stream size : 162 MiB (11%)
Alignment : Split accross interleaves
Interleave, duration : 40 ms (1.00 video frame)
Interleave, preload duration : 500 ms

Скриншот c названием фильма

Скриншоты

Сравнение скриншотов

Слева мои. Справа конкурент. http://torrentfilm.net/forum/viewtopic.php?t=1268201


[Профиль] [ЛС]

Создавать темы 06-Авг-2015 22:44 (спустя 5 месяцев 20 дней)

Топик был перенесен из форума Фильмы до 2014 года в форум Фильмы до 2012 года
sergej644
 
Кто просматривает тему:

Форум Тема Автор Размер
Nat Geo Wild Nat Geo Wild: Дикий Запад Африки. Жеребцы пустыни Намиб / Africa's Wild West. Stallions of the Namib Desert (Franz Leopold Schmelzer) [2014 г., Документальный, природа, флора, фауна, HDTVRip... skorpionN 1.59 GB
Фантастика, фэнтези Альберт Громов | С Востока на Запад строго по Гринвичу [сборник] (2015) [FB2] достали все 573 KB
Зарубежные сериалы Американский запад / The American West [S01] (2016) WEB-DL 1080p | Baibako Russian Mafia 14.27 GB
Зарубежные сериалы Американский запад / The American West [S01] (2016) WEB-DL 1080p | NewStudio Russian Mafia 13 GB
Зарубежные сериалы Американский запад / The American West [S01] (2016) WEB-DL 720p | Baibako Russian Mafia 11.57 GB
Зарубежные сериалы Американский запад / The American West [S01] (2016) WEB-DLRip | Baibako достали все 4.3 GB
Зарубежные сериалы Американский запад / The American West [S01] (2016) WEBRip 720p | NewStudio достали все 10.45 GB
Зарубежные сериалы Американский запад / The American West [S01] (2016) WEBRip | NewStudio достали все 4.3 GB
Показать сообщения:    

Текущее время: Сегодня 19:37

Часовой пояс: GMT



Вы не можете начинать темы
Вы не можете отвечать на сообщения
Вы не можете редактировать свои сообщения
Вы не можете удалять свои сообщения
Вы не можете голосовать в опросах
Вы не можете прикреплять файлы к сообщениям
Вы не можете скачивать файлы