Зануда / Спасибо, что побеспокоили / Le pot de colle (Жюльен Сери / Julien Seri) [2010, Франция, комедия, TVRip] DVO (ЕвроКино)

 
Автор Сообщение

TorrentFilm ®

Пол:

Стаж: 1 год 11 месяцев

Сообщений: 7741



Награды: Нет

Торрент-статистика

Создавать темы 06-Янв-2016 00:12

[Цитировать]

Зануда / Спасибо, что побеспокоили / Le pot de colle Страна: Франция
Жанр: комедия
Год выпуска: 2010
Продолжительность: 01:26:01
Перевод: Профессиональный (двухголосый закадровый) - канал «ЕвроКино»
Cубтитры: нет
Оригинальная аудиодорожка: нет
Режиссер: Жюльен Сери / Julien Seri
В ролях: Франсуа Берлеан, Эдуард Монтут, Гвендолин Амон, Юбер Сен-Макари, Chloé Xhauflaire, Фридерик Пруст, Тадрина Хокинг, Gauthier de Fauconval, Себастьен Вандерберг.
Описание: Ришар Моран скоро должен быть переизбран мэром в небольшом городке. Случайное событие меняет всю его жизнь. Ришар случайно спасает жизнь Жану Бернару, когда тот засыпает за рулём. Теперь Жан считает себя обязанным ему и делает всё, чтобы отблагодарить за спасение. К несчастью, Жан Бернар очень любезный, но упрямый и надоедливый!

Доп. информация:
Исходник - MPEG-PS - позаимствован из раздачи Valeronius. Спасибо!
Конвертация видео - Arle-kino

Качество видео: TVRip
Формат видео: AVI
Видео: 704x400 (1.76:1), 25 fps, XviD build 50 ~2197 kbps avg, 0.31 bit/pixel
Аудио: 48 kHz, AC3 Dolby Digital, 2/0 (L,R) ch, ~192 kbps

MediaInfo

General
Complete name : D:\Public\Le pot de colle (2010) TVrip.avi
Format : AVI
Format/Info : Audio Video Interleave
File size : 1.45 GiB
Duration : 1h 26mn
Overall bit rate : 2 400 Kbps
Writing application : VirtualDubMod 1.5.10.2 (build 2540/release)
Writing library : VirtualDubMod build 2540/release
Video
ID : 0
Format : MPEG-4 Visual
Format profile : Advanced Simple@L5
Format settings, BVOP : 1
Format settings, QPel : No
Format settings, GMC : No warppoints
Format settings, Matrix : Default (MPEG)
Codec ID : XVID
Codec ID/Hint : XviD
Duration : 1h 26mn
Bit rate : 2 198 Kbps
Width : 704 pixels
Height : 400 pixels
Display aspect ratio : 16:9
Frame rate : 25.000 fps
Color space : YUV
Chroma subsampling : 4:2:0
Bit depth : 8 bits
Scan type : Progressive
Compression mode : Lossy
Bits/(Pixel*Frame) : 0.312
Stream size : 1.33 GiB (92%)
Writing library : XviD 1.2.1 (UTC 2008-12-04)
Audio
ID : 1
Format : AC-3
Format/Info : Audio Coding 3
Mode extension : CM (complete main)
Codec ID : 2000
Duration : 1h 26mn
Bit rate mode : Constant
Bit rate : 192 Kbps
Channel(s) : 2 channels
Channel positions : Front: L R
Sampling rate : 48.0 KHz
Bit depth : 16 bits
Compression mode : Lossy
Stream size : 119 MiB (8%)
Alignment : Split accross interleaves
Interleave, duration : 40 ms (1.00 video frame)
Interleave, preload duration : 500 ms

Скриншот c названием фильма

Скриншоты

[Профиль] [ЛС]

Создавать темы 12-Июн-2016 07:53 (спустя 5 месяцев 6 дней)

Топик был перенесен из форума Фильмы 2011 года в форум Фильмы 2010 года
Russian Mafia
 
Кто просматривает тему:

Показать сообщения:    

Текущее время: Сегодня 14:01

Часовой пояс: GMT



Вы не можете начинать темы
Вы не можете отвечать на сообщения
Вы не можете редактировать свои сообщения
Вы не можете удалять свои сообщения
Вы не можете голосовать в опросах
Вы не можете прикреплять файлы к сообщениям
Вы не можете скачивать файлы