Замуж любой ценой / With This Ring (2015) WEB-DL 720p | iTunes

 
Автор Сообщение

достали все ®

Пол:

Стаж: 1 год 8 месяцев

Сообщений: 6565



Награды: 12 (Подробнее)

Top Releaser 2 (Количество: 1) Mega Seeder 4 (Количество: 1) Mega Releaser 3 (Количество: 1)
Торрент-статистика

Создавать темы 23-Июн-2015 09:45

[Цитировать]

Информация о фильме
Название: Замуж любой ценой
Оригинальное название: With This Ring
Год выхода: 2015
Жанр: Драма, комедия
Режиссер: Нзинга Стюарт
В ролях: Дэвис Агилья, Катрин Андерсон, Роберт Брей, Сара Мари Клэр Брукс, Кристина Касик, Джеффри Кэйн, Кайл Картенс, Холли Николь Шакан, Майкл Сипити, Лайла Кашман
О фильме:
Три подруги поклялись, что в течение года выйдут замуж. Но каждой из них придется столкнуться со своими проблемами: Триста не может забыть своего бывшего парня, Вивиан втайне влюблена в отца своего сына, ну а Амайя изо всех сил пытается разрушить несчастливый брак своего бывшего возлюбленного. Они все начинают год полные надежд... но вот получится ли у них взойти под венец?

Выпущено: США / Sony Pictures Television
Продолжительность: 01:27:40
Перевод: Профессиональное многоголосое [iTunes]
Файл
Формат: MKV
Качество: WEB-DL 720p
Видео: MPEG-4 AVC, 4707 Кбит/с, 1280x720
Звук: AC3, 6 ch, 384 Кбит/с

MI

Общее
Уникальный идентификатор : 182563886683327540886601153122119425413 (0x8958868E8E0868408D9633DA68239D85)
Полное имя : F:Раздача HDZamuzh.ljuboj.cenoj.2015.P.WEB-DL.720p.mkv
Формат : Matroska
Версия формата : Version 2
Размер файла : 3,12 Гбайт
Продолжительность : 1 ч. 27 м.
Общий поток : 5093 Кбит/сек
Название фильма : Zamuzh ljuboj cenoj.2015.P.WEB-DL.720p.ELEKTRI4KA.Uniongang.tv
Дата кодирования : UTC 2015-06-22 19:58:30
Программа кодирования : mkvmerge v3.4.0 ('Rapunzel') сборка от May 15 2010 09:38:20
Библиотека кодирования : libebml v0.8.0 + libmatroska v0.9.0
Видео
Идентификатор : 1
Формат : AVC
Формат/Информация : Advanced Video Codec
Профиль формата : High@L4.1
Параметр CABAC формата : Да
Параметр ReFrames формата : 8 кадров
Идентификатор кодека : V_MPEG4/ISO/AVC
Продолжительность : 1 ч. 27 м.
Битрейт : 4707 Кбит/сек
Ширина : 1280 пикселей
Высота : 720 пикселей
Соотношение сторон : 16:9
Режим частоты кадров : Постоянный
Частота кадров : 23,976 кадра/сек
Цветовое пространство : YUV
Субдискретизация насыщенности : 4:2:0
Битовая глубина : 8 бит
Тип развёртки : Прогрессивная
Бит/(Пиксели*Кадры) : 0.213
Размер потока : 2,82 Гбайт (90%)
Заголовок : Zamuzh ljuboj cenoj.2015.P.WEB-DL.720p.ELEKTRI4KA.Uniongang.tv
Библиотека кодирования : x264 core 130 r2273 b3065e6
Настройки программы : cabac=1 / ref=8 / deblock=1:-1:-1 / analyse=0x3:0x133 / me=umh / subme=7 / psy=1 / psy_rd=1.00:0.00 / mixed_ref=1 / me_range=16 / chroma_me=1 / trellis=1 / 8x8dct=1 / cqm=0 / deadzone=21,11 / fast_pskip=1 / chroma_qp_offset=-2 / threads=12 / lookahead_threads=2 / sliced_threads=0 / nr=0 / decimate=1 / interlaced=0 / bluray_compat=0 / constrained_intra=0 / bframes=3 / b_pyramid=2 / b_adapt=1 / b_bias=0 / direct=1 / weightb=1 / open_gop=0 / weightp=2 / keyint=250 / keyint_min=25 / scenecut=40 / intra_refresh=0 / rc_lookahead=40 / rc=2pass / mbtree=1 / bitrate=4707 / ratetol=1.0 / qcomp=0.60 / qpmin=0 / qpmax=69 / qpstep=4 / cplxblur=20.0 / qblur=0.5 / ip_ratio=1.40 / aq=1:1.00
Язык : English
Default : Нет
Forced : Нет
Аудио
Идентификатор : 2
Формат : AC-3
Формат/Информация : Audio Coding 3
Расширение режима : CM (complete main)
Параметр Endianness формата : Big
Идентификатор кодека : A_AC3
Продолжительность : 1 ч. 27 м.
Вид битрейта : Постоянный
Битрейт : 384 Кбит/сек
Каналы : 6 каналов
Расположение каналов : Front: L C R, Side: L R, LFE
Частота : 48,0 КГц
Битовая глубина : 16 бит
Метод сжатия : С потерями
Размер потока : 241 Мбайт (8%)
Заголовок : Русская AC3 384 Kb/s (6 ch)
Язык : Russian
Default : Нет
Forced : Нет

Скриншоты

[Профиль] [ЛС]
Показать сообщения:    

Текущее время: Сегодня 12:26

Часовой пояс: GMT



Вы не можете начинать темы
Вы не можете отвечать на сообщения
Вы не можете редактировать свои сообщения
Вы не можете удалять свои сообщения
Вы не можете голосовать в опросах
Вы не можете прикреплять файлы к сообщениям
Вы не можете скачивать файлы