Замужем за мафией / Married to the Mob (1988) BDRip 720p от MediaClub | P2, A

 
Автор Сообщение

sergej644 ®

Пол:

Стаж: 4 года 11 месяцев

Сообщений: 6038

Откуда: Soviet Union



Награды: Нет

Торрент-статистика

Создавать темы 11-Фев-2015 06:53

[Цитировать]

Информация о фильме
Название: Замужем за мафией
Оригинальное название: Married to the Mob
Год выпуска: 1988
Жанр: Комедия, мелодрама, криминал
Режиссер: Джонатан Демме
В ролях: Мишель Пфайффер, Мэттью Модайн, Джо Спинелл, Дин Стокуэлл, Мерседес Рул, Нэнси Трэвис, Чарльз Нэпьер, Оливер Плэтт, Джоан Кьюсак, Обба Бабатунде, Фрэнк Джио, Пол Лэзар, Алек Болдуин, Эл Льюис, Мария Карнилова
Описание: Начинается все на Лонг-Айленде, где дома набиты дорогой средиземноморской мебелью, люди одеваются в дорогие костюмы в полосочку, а женщины проводят почти все время в парикмахерских. Анжеле Де Марко, жене подающего надежды гангстера Фрэнка «Огурца» Де Марко, надоела криминальная ментальность окружающих ее людей, и она хочет смены обстановки. После того как Огурца застукал со своей любовницей и убил босс мафии Дон Тони «Тигр» Руссо, двое агентов ФБР решили, что Анжела и Тони состоят в любовной связи. Анжела вместе с сыном переезжает в квартирку на Манхэттэне, но агенты продолжают слежку, связывая уже ее деятельность с грязными делами мафии. Конечно, в соответствующий момент между Анжелой и агентом Майком Дауни вспыхивает страсть.

Выпущено: США / Mysterious Arts, Orion Pictures Corporation
Продолжительность: 01:44:03
Перевод: Профессиональный двухголосый, авторский
Файл
Видео: MPEG-4 AVC, 7000 Кбит/с, 1280x694, 23.976 кадр/с
Аудио #1: Русский (AC3, 2 ch, 192 Кбит/с) / Профессиональный двухголосый (Лазер Видео)
Аудио #2: Русский (AC3, 2 ch, 192 Кбит/с) / Профессиональный двухголосый (SDI Media)
Аудио #3: Русский (AC3, 2 ch, 192 Кбит/с) / Профессиональный двухголосый (НТВ)
Аудио #4: Русский (DTS, 2 ch, 1509 Кбит/с) / Авторский одноголосый (Живов)
Аудио #5: Русский (DTS, 2 ch, 1509 Кбит/с) / Авторский одноголосый (Михалев)
Аудио #6: Украинский (AC3, 2 ch, 192 Кбит/с) / Профессиональный двухголосый (Стармайстер)
Аудио #7: Английский (DTS, 2 ch, 1509 Кбит/с)

Скриншоты

MI

Общее
Уникальный идентификатор : 176373659462395103208457485049597582831 (0x84B054CA920316569827BFF5FDF0DDEF)
Полное имя : D:Mои раздачиZamuzhem.za.mafiey.1988.BDRip.720p-MediaClub.mkv
Формат : Matroska
Версия формата : Version 4 / Version 2
Размер файла : 8,94 Гбайт
Продолжительность : 1 ч. 44 м.
Общий поток : 12,3 Мбит/сек
Название фильма : -=MediaClub-kaspr=-
Дата кодирования : UTC 2014-10-24 10:17:27
Программа кодирования : mkvmerge v6.9.1 ('Blue Panther') 64bit built on Apr 18 2014 18:23:38
Библиотека кодирования : libebml v1.3.0 + libmatroska v1.4.1
Видео
Идентификатор : 1
Формат : AVC
Формат/Информация : Advanced Video Codec
Профиль формата : High@L4.1
Параметр CABAC формата : Да
Параметр ReFrames формата : 9 кадров
Идентификатор кодека : V_MPEG4/ISO/AVC
Продолжительность : 1 ч. 44 м.
Битрейт : 7000 Кбит/сек
Ширина : 1280 пикселей
Высота : 694 пикселя
Соотношение сторон : 1,85:1
Режим частоты кадров : Постоянный
Частота кадров : 23,976 кадра/сек
Цветовое пространство : YUV
Субдискретизация насыщенности : 4:2:0
Битовая глубина : 8 бит
Тип развёртки : Прогрессивная
Бит/(Пиксели*Кадры) : 0.329
Размер потока : 4,91 Гбайт (55%)
Заголовок : -=MediaClub-kaspr=-
Библиотека кодирования : x264 core 142 r2431+42 c69a006 tMod [8-bit@4:2:0 X86_64]
Настройки программы : cabac=1 / ref=9 / deblock=1:-3:-3 / analyse=0x3:0x113 / me=umh / subme=11 / psy=1 / fade_compensate=0.00 / psy_rd=1.00:0.00 / mixed_ref=1 / me_range=32 / chroma_me=1 / trellis=2 / 8x8dct=1 / cqm=0 / deadzone=21,11 / fast_pskip=0 / chroma_qp_offset=-2 / threads=12 / lookahead_threads=3 / sliced_threads=0 / nr=0 / decimate=0 / interlaced=0 / bluray_compat=0 / constrained_intra=0 / fgo=0 / bframes=12 / b_pyramid=2 / b_adapt=2 / b_bias=0 / direct=3 / weightb=1 / open_gop=0 / weightp=2 / keyint=240 / keyint_min=23 / scenecut=40 / intra_refresh=0 / rc=2pass / mbtree=0 / bitrate=7000 / ratetol=1.0 / qcomp=0.60 / qpmin=0:0:0 / qpmax=69:69:69 / qpstep=4 / cplxblur=20.0 / qblur=0.5 / ip_ratio=1.40 / pb_ratio=1.30 / aq=4:0.80 / aq-sensitivity=10.00 / aq-factor=1.00:1.00:1.00 / aq2=0 / aq3=0
Default : Да
Forced : Нет
Аудио #1
Идентификатор : 2
Формат : AC-3
Формат/Информация : Audio Coding 3
Расширение режима : CM (complete main)
Параметр Endianness формата : Big
Идентификатор кодека : A_AC3
Продолжительность : 1 ч. 44 м.
Вид битрейта : Постоянный
Битрейт : 192 Кбит/сек
Каналы : 2 канала
Расположение каналов : Front: L R
Частота : 48,0 КГц
Битовая глубина : 16 бит
Метод сжатия : С потерями
Размер потока : 143 Мбайт (2%)
Заголовок : DVO (Лазер Видео)
Язык : Russian
Default : Да
Forced : Нет
Аудио #2
Идентификатор : 3
Формат : AC-3
Формат/Информация : Audio Coding 3
Расширение режима : CM (complete main)
Параметр Endianness формата : Big
Идентификатор кодека : A_AC3
Продолжительность : 1 ч. 44 м.
Вид битрейта : Постоянный
Битрейт : 192 Кбит/сек
Каналы : 2 канала
Расположение каналов : Front: L R
Частота : 48,0 КГц
Битовая глубина : 16 бит
Метод сжатия : С потерями
Размер потока : 143 Мбайт (2%)
Заголовок : DVO (SDI Media)
Язык : Russian
Default : Нет
Forced : Нет
Аудио #3
Идентификатор : 4
Формат : AC-3
Формат/Информация : Audio Coding 3
Расширение режима : CM (complete main)
Параметр Endianness формата : Big
Идентификатор кодека : A_AC3
Продолжительность : 1 ч. 44 м.
Вид битрейта : Постоянный
Битрейт : 192 Кбит/сек
Каналы : 2 канала
Расположение каналов : Front: L R
Частота : 48,0 КГц
Битовая глубина : 16 бит
Метод сжатия : С потерями
Размер потока : 143 Мбайт (2%)
Заголовок : DVO (НТВ)
Язык : Russian
Default : Нет
Forced : Нет
Аудио #4
Идентификатор : 5
Формат : DTS
Формат/Информация : Digital Theater Systems
Режим : 16
Параметр Endianness формата : Big
Идентификатор кодека : A_DTS
Продолжительность : 1 ч. 44 м.
Вид битрейта : Постоянный
Битрейт : 1509 Кбит/сек
Каналы : 2 канала
Расположение каналов : Front: L R
Частота : 48,0 КГц
Битовая глубина : 16 бит
Метод сжатия : С потерями
Размер потока : 1,10 Гбайт (12%)
Заголовок : AVO (Живов)
Язык : Russian
Default : Нет
Forced : Нет
Аудио #5
Идентификатор : 6
Формат : DTS
Формат/Информация : Digital Theater Systems
Режим : 16
Параметр Endianness формата : Big
Идентификатор кодека : A_DTS
Продолжительность : 1 ч. 44 м.
Вид битрейта : Постоянный
Битрейт : 1509 Кбит/сек
Каналы : 2 канала
Расположение каналов : Front: L R
Частота : 48,0 КГц
Битовая глубина : 16 бит
Метод сжатия : С потерями
Размер потока : 1,10 Гбайт (12%)
Заголовок : AVO (Михалев)
Язык : Russian
Default : Нет
Forced : Нет
Аудио #6
Идентификатор : 7
Формат : AC-3
Формат/Информация : Audio Coding 3
Расширение режима : CM (complete main)
Параметр Endianness формата : Big
Идентификатор кодека : A_AC3
Продолжительность : 1 ч. 44 м.
Вид битрейта : Постоянный
Битрейт : 192 Кбит/сек
Каналы : 2 канала
Расположение каналов : Front: L R
Частота : 48,0 КГц
Битовая глубина : 16 бит
Метод сжатия : С потерями
Размер потока : 143 Мбайт (2%)
Заголовок : DVO (Стармайстер)
Язык : Ukrainian
Default : Нет
Forced : Нет
Аудио #7
Идентификатор : 8
Формат : DTS
Формат/Информация : Digital Theater Systems
Режим : 16
Параметр Endianness формата : Big
Идентификатор кодека : A_DTS
Продолжительность : 1 ч. 44 м.
Вид битрейта : Постоянный
Битрейт : 1509 Кбит/сек
Каналы : 2 канала
Расположение каналов : Front: L R
Частота : 48,0 КГц
Битовая глубина : 16 бит
Метод сжатия : С потерями
Размер потока : 1,10 Гбайт (12%)
Язык : English
Default : Нет
Forced : Нет
Меню
00:00:00.000 : en:Chapter 01
00:11:58.634 : en:Chapter 02
00:24:50.405 : en:Chapter 03
00:40:36.183 : en:Chapter 04
00:49:45.899 : en:Chapter 05
01:05:33.930 : en:Chapter 06
01:18:39.339 : en:Chapter 07
01:31:29.484 : en:Chapter 08
[Профиль] [ЛС]
Показать сообщения:    

Текущее время: Сегодня 04:17

Часовой пояс: GMT



Вы не можете начинать темы
Вы не можете отвечать на сообщения
Вы не можете редактировать свои сообщения
Вы не можете удалять свои сообщения
Вы не можете голосовать в опросах
Вы не можете прикреплять файлы к сообщениям
Вы не можете скачивать файлы