Замужем за мафией / Married to the Mob (1988) BDRip-AVC от 0ptimus | D, P, P2, A

 
Автор Сообщение

sergej644 ®

Пол:

Стаж: 4 года 11 месяцев

Сообщений: 6038

Откуда: Soviet Union



Награды: Нет

Торрент-статистика

Создавать темы 10-Дек-2014 08:59

[Цитировать]

Замужем за мафией
| Married to the Mob |

Информация о фильме
Название: Замужем за мафией
Оригинальное название: Married to the Mob
Год выхода: 1988
Жанр: комедия, мелодрама, криминал
Режиссер: Джонатан Демме
В ролях: Мишель Пфайффер, Мэттью Модайн, Джо Спинелл, Дин Стокуэлл, Мерседес Рул, Нэнси Трэвис, Чарльз Нэпьер, Оливер Плэтт, Джоан Кьюсак, Обба Бабатунде, Фрэнк Джио, Пол Лэзар, Алек Болдуин, Эл Льюис, Мария Карнилова
О фильме:
Начинается все на Лонг-Айленде, где дома набиты дорогой средиземноморской мебелью, люди одеваются в дорогие костюмы в полосочку, а женщины проводят почти все время в парикмахерских. Анжеле Де Марко, жене подающего надежды гангстера Фрэнка «Огурца» Де Марко, надоела криминальная ментальность окружающих ее людей, и она хочет смены обстановки. После того как Огурца застукал со своей любовницей и убил босс мафии Дон Тони «Тигр» Руссо, двое агентов ФБР решили, что Анжела и Тони состоят в любовной связи. Анжела вместе с сыном переезжает в квартирку на Манхэттэне, но агенты продолжают слежку, связывая уже ее деятельность с грязными делами мафии. Конечно, в соответствующий момент между Анжелой и агентом Майком Дауни вспыхивает страсть.

Страна: США
Студия: Mysterious Arts, Orion Pictures Corporation
Продолжительность: 01:44:03
Перевод: Дублированный, профессиональный многоголосый, профессиональный двухголосый, авторский
Файл
Кодек: h.264
Качество: BDRip-AVC
Видео: 3341 Кбит/с, 1024x554, 23.976 кадр/c
Звук:
• №1: Русский (AC3, 6 ch, 384 Кбит/с) / Профессиональный многоголосый (НТВ+)
• №2: Русский (AC3, 2 ch, 192 Кбит/с) / Дублированный
• №3: Русский (AC3, 2 ch, 192 Кбит/с) / Авторский одноголосый (Алексей Михалев)
• №4: Английский (AC3, 6 ch, 384 Кбит/с)
Отдельно:
• №5: Русский (AC3, 2 ch, 192 Кбит/с) / Профессиональный многоголосый (Лазер Видео)
• №6: Русский (AC3, 2 ch, 192 Кбит/с) / Профессиональный многоголосый (НТВ)
• №7: Русский (AC3, 2 ch, 192 Кбит/с) / Профессиональный многоголосый
• №8: Русский (AC3, 2 ch, 192 Кбит/с) / Профессиональный двухголосый (SDI Media)
• №9: Русский (AC3, 2 ch, 192 Кбит/с) / Авторский одноголосый (Юрий Живов)
• №10: Русский (AC3, 2 ch, 192 Кбит/с) / Авторский одноголосый (Юрий Сербин)
• №11: Украинский (AC3, 2 ch, 192 Кбит/с) / Профессиональный многоголосый (Стармайстер)
Субтитры: Английские

MediaInfo

------------------------------------------------------------------------------------------------------------------
x264 [info]: frame I:930 Avg QP:19.03 size: 75622
x264 [info]: frame P:30497 Avg QP:21.70 size: 31661
x264 [info]: frame B:118248 Avg QP:22.99 size: 13289
x264 [info]: consecutive B-frames: 1.6% 2.3% 6.3% 18.1% 15.2% 38.4% 6.7% 2.3% 3.9% 0.7% 1.4% 2.2% 0.5% 0.3%
------------------------------------------------------------------------------------------------------------------
Полное имя : Married.to.the.Mob.1988.x264.BDRip-AVC.0ptimus.mkv
Формат : Matroska
Версия формата : Version 2
Размер файла : 3,27 Гбайт
Продолжительность : 1 ч. 44 м.
Общий поток : 4496 Кбит/сек
Название фильма : Замужем за мафией | Married to the Mob [1988] -= BDRip (AVC) by 0ptimus =-
Дата кодирования : UTC 2014-12-09 12:22:17
Программа кодирования : mkvmerge v6.6.0 ('The Edge Of The In Between') built on Dec 1 2013 17:55:00
Библиотека кодирования : libebml v1.3.0 + libmatroska v1.4.1
Видео
Идентификатор : 1
Формат : AVC
Формат/Информация : Advanced Video Codec
Профиль формата : High@L4.1
Параметр CABAC формата : Да
Параметр ReFrames формата : 11 кадров
Идентификатор кодека : V_MPEG4/ISO/AVC
Продолжительность : 1 ч. 44 м.
Битрейт : 3341 Кбит/сек
Ширина : 1024 пикселя
Высота : 554 пикселя
Соотношение сторон : 1,85:1
Режим частоты кадров : Постоянный
Частота кадров : 23,976 кадра/сек
Цветовое пространство : YUV
Субдискретизация насыщенности : 4:2:0
Битовая глубина : 8 бит
Тип развёртки : Прогрессивная
Бит/(Пиксели*Кадры) : 0.246
Размер потока : 2,37 Гбайт (72%)
Заголовок : Rup by 0ptimus
Библиотека кодирования : x264 core 133 r2334 a3ac64b
Настройки программы : cabac=1 / ref=11 / deblock=1:-3:-3 / analyse=0x3:0x113 / me=umh / subme=11 / psy=1 / psy_rd=1.00:0.25 / mixed_ref=1 / me_range=32 / chroma_me=1 / trellis=2 / 8x8dct=1 / cqm=0 / deadzone=21,11 / fast_pskip=0 / chroma_qp_offset=-4 / threads=3 / lookahead_threads=1 / sliced_threads=0 / nr=0 / decimate=0 / interlaced=0 / bluray_compat=0 / constrained_intra=0 / bframes=13 / b_pyramid=2 / b_adapt=2 / b_bias=0 / direct=3 / weightb=1 / open_gop=0 / weightp=2 / keyint=240 / keyint_min=23 / scenecut=40 / intra_refresh=0 / rc_lookahead=40 / rc=2pass / mbtree=0 / bitrate=3341 / ratetol=1.0 / qcomp=0.60 / qpmin=0 / qpmax=69 / qpstep=4 / cplxblur=20.0 / qblur=0.5 / vbv_maxrate=50000 / vbv_bufsize=50000 / nal_hrd=none / ip_ratio=1.40 / pb_ratio=1.30 / aq=1:1.00
Язык : English
Default : Да
Forced : Да
Аудио #1
Идентификатор : 2
Формат : AC-3
Формат/Информация : Audio Coding 3
Расширение режима : CM (complete main)
Параметр Endianness формата : Big
Идентификатор кодека : A_AC3
Продолжительность : 1 ч. 44 м.
Вид битрейта : Постоянный
Битрейт : 384 Кбит/сек
Каналы : 6 каналов
Расположение каналов : Front: L C R, Side: L R, LFE
Частота : 48,0 КГц
Битовая глубина : 16 бит
Метод сжатия : С потерями
Размер потока : 286 Мбайт (9%)
Заголовок : Многоголосый [НТВ+] AC3 5.1 @ 384 kbps
Язык : Russian
Default : Да
Forced : Да
Аудио #2
Идентификатор : 3
Формат : AC-3
Формат/Информация : Audio Coding 3
Расширение режима : CM (complete main)
Параметр Endianness формата : Big
Идентификатор кодека : A_AC3
Продолжительность : 1 ч. 44 м.
Вид битрейта : Постоянный
Битрейт : 192 Кбит/сек
Каналы : 2 канала
Расположение каналов : Front: L R
Частота : 48,0 КГц
Битовая глубина : 16 бит
Метод сжатия : С потерями
Размер потока : 143 Мбайт (4%)
Заголовок : Дублированный AC3 2.0 @ 192 kbps
Язык : Russian
Default : Нет
Forced : Нет
Аудио #3
Идентификатор : 4
Формат : AC-3
Формат/Информация : Audio Coding 3
Расширение режима : CM (complete main)
Параметр Endianness формата : Big
Идентификатор кодека : A_AC3
Продолжительность : 1 ч. 44 м.
Вид битрейта : Постоянный
Битрейт : 192 Кбит/сек
Каналы : 2 канала
Расположение каналов : Front: L R
Частота : 48,0 КГц
Битовая глубина : 16 бит
Метод сжатия : С потерями
Размер потока : 143 Мбайт (4%)
Заголовок : Авторский [Алексей Михалев] AC3 2.0 @ 192 kbps
Язык : Russian
Default : Нет
Forced : Нет
Аудио #4
Идентификатор : 5
Формат : AC-3
Формат/Информация : Audio Coding 3
Расширение режима : CM (complete main)
Параметр Endianness формата : Big
Идентификатор кодека : A_AC3
Продолжительность : 1 ч. 44 м.
Вид битрейта : Постоянный
Битрейт : 384 Кбит/сек
Каналы : 6 каналов
Расположение каналов : Front: L C R, Side: L R, LFE
Частота : 48,0 КГц
Битовая глубина : 16 бит
Метод сжатия : С потерями
Размер потока : 286 Мбайт (9%)
Заголовок : AC3 5.1 @ 384 kbps
Язык : English
Default : Нет
Forced : Нет
Текст
Идентификатор : 6
Формат : UTF-8
Идентификатор кодека : S_TEXT/UTF8
Идентификатор кодека/Информация : UTF-8 Plain Text
Язык : English
Default : Нет
Forced : Нет
Меню
00:00:00.000 : :Chapter 01
00:05:00.000 : :Chapter 02
00:10:00.000 : :Chapter 03
00:15:00.000 : :Chapter 04
00:20:00.000 : :Chapter 05
00:25:00.000 : :Chapter 06
00:30:00.000 : :Chapter 07
00:35:00.000 : :Chapter 08
00:40:00.000 : :Chapter 09
00:45:00.000 : :Chapter 10
00:50:00.000 : :Chapter 11
00:55:00.000 : :Chapter 12
01:00:00.000 : :Chapter 13
01:05:00.000 : :Chapter 14
01:10:00.000 : :Chapter 15
01:15:00.000 : :Chapter 16
01:20:00.000 : :Chapter 17
01:25:00.000 : :Chapter 18
01:30:00.000 : :Chapter 19
01:35:00.000 : :Chapter 20
01:40:00.000 : :Chapter 21

Скриншоты



Релиз от:
[Профиль] [ЛС]

Создавать темы 06-Авг-2015 22:56 (спустя 7 месяцев 27 дней)

Топик был перенесен из форума Фильмы до 2014 года в форум Фильмы до 2012 года
sergej644
 
Показать сообщения:    

Текущее время: Сегодня 08:27

Часовой пояс: GMT



Вы не можете начинать темы
Вы не можете отвечать на сообщения
Вы не можете редактировать свои сообщения
Вы не можете удалять свои сообщения
Вы не можете голосовать в опросах
Вы не можете прикреплять файлы к сообщениям
Вы не можете скачивать файлы