Замерзший поцелуй / Frozen Kiss (Гарри Бромли Девенпорт / Harry Bromley Davenport) [2009, США, Драма, HDTVRip] MVO

 
Автор Сообщение

TorrentFilm ®

Пол:

Стаж: 2 года

Сообщений: 7741



Награды: Нет

Торрент-статистика

Создавать темы 22-Дек-2014 02:00

[Цитировать]

Замерзший поцелуй / Frozen Kiss
Страна: США
Жанр: Драма
Год выпуска: 2009
Продолжительность: 01:23:31
Перевод: Профессиональный (многоголосый закадровый)
Cубтитры: нет
Режиссер: Гарри Бромли Девенпорт / Harry Bromley Davenport
В ролях: Мими Роджерс, Джэми Мартц, Камерон Гудман, Дэвид Старзик, Крис Мейер, Зак Беннетт, Карен Ландри, Йениффер Беренс, Виктор Харрис
Описание: Фильм, основан на реальных событиях. "Замерзший поцелуй" это история спасения и выживания молодых людей во время разбушевавшейся метели. Влюбленная пара Район и Шелли, возвращались домой после вечеринки и их машина застряла в снегу на незнакомой дороге, но это не единственная неприятность, подстерегавшая их в эту ночь. Сможет ли пара выжить и найти убежище...
Сэмпл: https://yadi.sk/i/8JMxHe2WdCZoe
Качество видео: HDTVRip
Формат видео: AVI
Видео: 720x400 (1.80:1), 25 fps, XviD build 50 ~2139 kbps avg, 0.30 bit/pixel
Аудио: 48 kHz, AC3 Dolby Digital, 2/0 (L,R) ch, ~192 kbps

MediaInfo

Замерзший поцелуй - Frozen Kiss.avi
Format : AVI
Format/Info : Audio Video Interleave
File size : 1.37 GiB
Duration : 1h 23mn
Overall bit rate : 2 342 Kbps
Writing application : VirtualDubMod 1.5.10.2 (build 2540/release)
Writing library : VirtualDubMod build 2540/release
Video
ID : 0
Format : MPEG-4 Visual
Format profile : Advanced Simple@L5
Format settings, BVOP : 1
Format settings, QPel : No
Format settings, GMC : No warppoints
Format settings, Matrix : Default (MPEG)
Codec ID : XVID
Codec ID/Hint : XviD
Duration : 1h 23mn
Bit rate : 2 140 Kbps
Width : 720 pixels
Height : 400 pixels
Display aspect ratio : 16:9
Frame rate : 25.000 fps
Color space : YUV
Chroma subsampling : 4:2:0
Bit depth : 8 bits
Scan type : Progressive
Compression mode : Lossy
Bits/(Pixel*Frame) : 0.297
Stream size : 1.25 GiB (91%)
Writing library : XviD 1.2.1 (UTC 2008-12-04)
Audio
ID : 1
Format : AC-3
Format/Info : Audio Coding 3
Mode extension : CM (complete main)
Format settings, Endianness : Big
Codec ID : 2000
Duration : 1h 23mn
Bit rate mode : Constant
Bit rate : 192 Kbps
Channel(s) : 2 channels
Channel positions : Front: L R
Sampling rate : 48.0 KHz
Bit depth : 16 bits
Compression mode : Lossy
Delay relative to video : 16ms
Stream size : 115 MiB (8%)
Alignment : Split accross interleaves
Interleave, duration : 40 ms (1.00 video frame)
Interleave, preload duration : 500 ms

Скриншоты


[Профиль] [ЛС]

Создавать темы 06-Авг-2015 22:53 (спустя 7 месяцев 15 дней)

Топик был перенесен из форума Фильмы до 2014 года в форум Фильмы до 2012 года
sergej644
 

Создавать темы 12-Июн-2016 08:48 (спустя 1 год 5 месяцев)

Топик был перенесен из форума Фильмы 2011 года в форум Фильмы 2009 года
Russian Mafia
 
Показать сообщения:    

Текущее время: Сегодня 11:54

Часовой пояс: GMT



Вы не можете начинать темы
Вы не можете отвечать на сообщения
Вы не можете редактировать свои сообщения
Вы не можете удалять свои сообщения
Вы не можете голосовать в опросах
Вы не можете прикреплять файлы к сообщениям
Вы не можете скачивать файлы