Замерзшая из Майами / New in Town (Йонас Элмер / Jonas Elmer) [2009, США, Мелодрама, комедия, BDRip] Dub + Original (Eng) + Subs (Rus, Eng)

 
Автор Сообщение

reversefile ®

Пол:

Стаж: 4 года 5 месяцев

Сообщений: 842

Откуда: ReverseFile.org



Награды: Нет

Торрент-статистика

Создавать темы 13-Авг-2014 10:03

[Цитировать]

Замерзшая из Майами / New in Town
«Ветер, снег и ледяной прием. Судьба забросила ее чуть дальше, чем она планировала»
- Год выпуска: 2009
Выпущено: США, Канада / Edmonds Entertainment
Жанр: мелодрама, комедия
Продолжительность: 01:36:48
Перевод: Профессиональный (полное дублирование) + Оригинальная дорожка
Субтитры: Русские, Английские (внешние .srt*)-Режиссер:
Йонас Элмер / Jonas Elmer-В ролях:
Рене Зеллвегер (Lucy Hill), Гарри Конник мл. (Ted Mitchell), Шиван Фэллон (Blanche Gunderson), Дж.К. Симмонс (Stu Kopenhafer), Майк О’Брайэн (Lars Ulstead), Фрэнсис Конрой (Trudy Van Uuden), Феррон Гуирейро (Bobbie Mitchell), Барбара Джеймс Смит (Joan), Джеймс Дархэм (Rob Deitmar)-Описание:
Люси Хилл любит роскошные платья, дорогие машины и ей нравится карабкаться вверх по карьерной лестнице. Как-то раз из родного жаркого Майами ее отправляют в командировку в холодную Миннесоту. Чтобы выполнить задание, Люси должна приспособиться к суровому климату и к местным жителям, которые не собираются оказывать ей теплый прием.-IMDB | КиноПоиск | Сэмпл |-Качество: BDRip
Формат: AVI
Видео: 704x400 (1.76:1), 23.976 fps, XviD build 73 ~1695 kbps avg, 0.25 bit/pixel
Аудио: 48 kHz, AC3 Dolby Digital, 3/2 (L,C,R,l,r) + LFE ch, ~448.00 kbps avg
-

Скриншоты

MediaInfo

General
Complete name                            : D:\Zamerzshaya_iz_Mayami_2009_BDRip_by_Dalemake.avi
Format                                   : AVI
Format/Info                              : Audio Video Interleave
File size                                : 1.46 GiB
Duration                                 : 1h 36mn
Overall bit rate                         : 2 153 Kbps
Writing application                      : VirtualDubMod 1.5.10.3 | www.virtualdub-fr.org || (build 2550/release)
Writing library                          : VirtualDubMod build 2550/release
Video
ID                                       : 0
Format                                   : MPEG-4 Visual
Format profile                           : Advanced Simple@L5
Format settings, BVOP                    : 1
Format settings, QPel                    : No
Format settings, GMC                     : No warppoints
Format settings, Matrix                  : Custom
Codec ID                                 : XVID
Codec ID/Hint                            : XviD
Duration                                 : 1h 36mn
Bit rate                                 : 1 696 Kbps
Width                                    : 704 pixels
Height                                   : 400 pixels
Display aspect ratio                     : 16:9
Frame rate                               : 23.976 fps
Color space                              : YUV
Chroma subsampling                       : 4:2:0
Bit depth                                : 8 bits
Scan type                                : Progressive
Compression mode                         : Lossy
Bits/(Pixel*Frame)                       : 0.251
Stream size                              : 1.15 GiB (79%)
Writing library                          : XviD 73
Audio
ID                                       : 1
Format                                   : AC-3
Format/Info                              : Audio Coding 3
Mode extension                           : CM (complete main)
Format settings, Endianness              : Big
Codec ID                                 : 2000
Duration                                 : 1h 36mn
Bit rate mode                            : Constant
Bit rate                                 : 448 Kbps
Channel(s)                               : 6 channels
Channel positions                        : Front: L C R, Side: L R, LFE
Sampling rate                            : 48.0 KHz
Bit depth                                : 16 bits
Compression mode                         : Lossy
Stream size                              : 310 MiB (21%)
Alignment                                : Split accross interleaves
Interleave, duration                     : 42 ms (1.00 video frame)
Interleave, preload duration             : 500 ms
-
[Профиль] [ЛС]

Создавать темы 06-Авг-2015 23:18 (спустя 11 месяцев 24 дня)

Топик был перенесен из форума Фильмы до 2014 года в форум Фильмы до 2012 года
sergej644
 

Создавать темы 12-Июн-2016 08:13 (спустя 1 год 9 месяцев)

Топик был перенесен из форума Фильмы 2011 года в форум Фильмы 2009 года
Russian Mafia
 
Показать сообщения:    

Текущее время: Сегодня 08:14

Часовой пояс: GMT



Вы не можете начинать темы
Вы не можете отвечать на сообщения
Вы не можете редактировать свои сообщения
Вы не можете удалять свои сообщения
Вы не можете голосовать в опросах
Вы не можете прикреплять файлы к сообщениям
Вы не можете скачивать файлы