Замена / The Substitute (1996) BDRip-AVC от MediaClub | P, P2. A

 
Автор Сообщение

sergej644 ®

Пол:

Стаж: 4 года 11 месяцев

Сообщений: 6035

Откуда: Soviet Union



Награды: Нет

Торрент-статистика

Создавать темы 18-Окт-2014 15:10

[Цитировать]

--Замена / The Substitute
Информация о фильме
Название: Замена
Оригинальное название: The Substitute
Год выпуска: 1996
Жанр: Боевик, триллер, драма, криминал
Режиссер: Роберт Мэндел
В ролях: Том Беренджер, Рэймонд Крус, Уильям Форсайт, Луис Гузман, Ричард Брукс, Дайан Венора, Гленн Пламмер, Шэррон Корли, Винсент Лареска, Морис Комт, Марк Энтони, Эрни Хадсон, Бо Уивер, Клифф Де Янг, Уиллис Спаркс, Ноэль Бек, Джоди Уилсон, Мария Целедонио, Дэвид Хэйес, Пегги Поуп, Мелисса Мартинез, Клаудия Силва, Энрике Круз, Дэвид Диаз, Лазаро Гомез, Трэвис Паттерсон, Саймон Рики, Мерседес Энрикез, Арти Малески, Родни А. Грант, Стив Дюмошель, Хуан Ф. Чейас, Марго Пиис, Уиллмер Падилла, Марта Веласко, Майк Бенитез, Орландо Делберт, Брайан Фрайдэй, Энтони Петцольд, Фрэнк Силва
О фильме: «Солдат Удачи» Шейл, уволенный из ЦРУ, выходит на временную работу вместо своей подруги Джейн, учительницы одной из средних школ Майами. Здесь он узнает о существовании банды «К. Р.» («Короли Разрушения»), процветающей за счет наркобизнеса. Чтобы разобраться с мафией, Шейл обращается за помощью к своим друзьям-наемникам…

Страна: США
Студия: Live Entertainment
Продолжительность: 01:55:03
Перевод: Профессиональный многоголосый, профессиональный двухголосый, авторский одноголосый
Файл
Кодек: x264
Качество: BDRip-AVC
Видео: MPEG-4 AVC, 2275 Кбит/с, 1024x552, 23.976 кадр/с
Аудио #1: Русский (AC3, 6 ch, 384 Кбит/с) / Профессиональный многоголосый (R5)
Аудио #2: Русский (AC3, 2 ch, 192 Кбит/с) / Профессиональный двухголосый (СТС)
Аудио #3: Русский (AC3, 2 ch, 192 Кбит/с) / Авторский одноголосый (Андрей Гаврилов)
Аудио #4: Русский (AC3, 1 ch, 192 Кбит/с) / Авторский одноголосый (Владимир Сонькин)
Аудио #5: Английский (AC3, 6 ch, 384 Кбит/с)
Субтитры: Русские, английские
Семпл

MI

x264 [info]: frame I:1424  Avg QP:16.49  size: 71982
x264 [info]: frame P:46755 Avg QP:20.11  size: 22703
x264 [info]: frame B:117326 Avg QP:21.68  size:  6821
=================================
Уникальный идентификатор                 : 196782815071857301017688134695712833078 (0x940AFDDA128816C2908518631059BE36)
Полное имя                               : E:MCZamena.1996.x264.BDRip(AVC)-MediaClubZamena.1996.x264.BDRip(AVC)-MediaClub.mkv
Формат                                   : Matroska
Версия формата                           : Version 4 / Version 2
Размер файла                             : 2,91 Гбайт
Продолжительность                        : 1 ч. 55 м.
Общий поток                              : 3624 Кбит/сек
Название фильма                          : -= Release MediaClub =-
Дата кодирования                         : UTC 2014-10-16 19:05:01
Программа кодирования                    : mkvmerge v6.4.1 ('Omega Point') built on Sep 16 2013 22:05:10
Библиотека кодирования                   : libebml v1.3.0 + libmatroska v1.4.1
Attachment                               : Yes
Видео
Идентификатор                            : 1
Формат                                   : AVC
Формат/Информация                        : Advanced Video Codec
Профиль формата                          : High@L4.1
Параметр CABAC формата                   : Да
Параметр ReFrames формата                : 10 кадров
Идентификатор кодека                     : V_MPEG4/ISO/AVC
Продолжительность                        : 1 ч. 55 м.
Битрейт                                  : 2275 Кбит/сек
Ширина                                   : 1024 пикселя
Высота                                   : 552 пикселя
Соотношение сторон                       : 1,85:1
Режим частоты кадров                     : Постоянный
Частота кадров                           : 23,976 кадра/сек
Цветовое пространство                    : YUV
Субдискретизация насыщенности            : 4:2:0
Битовая глубина                          : 8 бит
Тип развёртки                            : Прогрессивная
Бит/(Пиксели*Кадры)                      : 0.168
Размер потока                            : 1,77 Гбайт (61%)
Заголовок                                : Zamena.1996.x264.BDRip(AVC)-neni
Библиотека кодирования                   : x264 core 142 r2409+42 04be48a tMod [8-bit@4:2:0 X86_64]
Настройки программы                      : cabac=1 / ref=10 / deblock=1:-3:-3 / analyse=0x3:0x133 / me=umh / subme=11 / psy=1 / fade_compensate=0.00 / psy_rd=1.00:0.25 / mixed_ref=1 / me_range=48 / chroma_me=1 / trellis=2 / 8x8dct=1 / cqm=0 / deadzone=21,11 / fast_pskip=0 / chroma_qp_offset=-4 / threads=9 / lookahead_threads=2 / sliced_threads=0 / nr=0 / decimate=0 / interlaced=0 / bluray_compat=0 / constrained_intra=0 / fgo=0 / bframes=10 / b_pyramid=2 / b_adapt=2 / b_bias=0 / direct=3 / weightb=1 / open_gop=0 / weightp=2 / keyint=240 / keyint_min=23 / scenecut=40 / intra_refresh=0 / rc=2pass / mbtree=0 / bitrate=2275 / ratetol=1.0 / qcomp=0.60 / qpmin=0:0:0 / qpmax=69:69:69 / qpstep=4 / cplxblur=20.0 / qblur=0.5 / ip_ratio=1.40 / pb_ratio=1.30 / aq=2:1.00 / aq-sensitivity=10.00 / aq-factor=1.00:1.00:1.00 / aq2=0 / aq3=0
Язык                                     : English
Default                                  : Да
Forced                                   : Нет
Аудио #1
Идентификатор                            : 2
Формат                                   : AC-3
Формат/Информация                        : Audio Coding 3
Расширение режима                        : CM (complete main)
Параметр Endianness формата              : Big
Идентификатор кодека                     : A_AC3
Продолжительность                        : 1 ч. 55 м.
Вид битрейта                             : Постоянный
Битрейт                                  : 384 Кбит/сек
Каналы                                   : 6 каналов
Расположение каналов                     : Front: L C R, Side: L R, LFE
Частота                                  : 48,0 КГц
Битовая глубина                          : 16 бит
Метод сжатия                             : С потерями
Размер потока                            : 316 Мбайт (11%)
Заголовок                                : MVO AC3 5.1 ch 384 Kbps 48.0 KHz (R5)
Язык                                     : Russian
Default                                  : Да
Forced                                   : Нет
Аудио #2
Идентификатор                            : 3
Формат                                   : AC-3
Формат/Информация                        : Audio Coding 3
Расширение режима                        : CM (complete main)
Параметр Endianness формата              : Big
Идентификатор кодека                     : A_AC3
Продолжительность                        : 1 ч. 55 м.
Вид битрейта                             : Постоянный
Битрейт                                  : 192 Кбит/сек
Каналы                                   : 2 канала
Расположение каналов                     : Front: L R
Частота                                  : 48,0 КГц
Битовая глубина                          : 16 бит
Метод сжатия                             : С потерями
Размер потока                            : 158 Мбайт (5%)
Заголовок                                : DVO AC3 2 ch 192 Kbps 48.0 KHz (СТС)
Язык                                     : Russian
Default                                  : Нет
Forced                                   : Нет
Аудио #3
Идентификатор                            : 4
Формат                                   : AC-3
Формат/Информация                        : Audio Coding 3
Расширение режима                        : CM (complete main)
Параметр Endianness формата              : Big
Идентификатор кодека                     : A_AC3
Продолжительность                        : 1 ч. 55 м.
Вид битрейта                             : Постоянный
Битрейт                                  : 192 Кбит/сек
Каналы                                   : 2 канала
Расположение каналов                     : Front: L R
Частота                                  : 48,0 КГц
Битовая глубина                          : 16 бит
Метод сжатия                             : С потерями
Размер потока                            : 158 Мбайт (5%)
Заголовок                                : AVO AC3 2 ch 192 Kbps 48.0 KHz (Gavrilov)
Язык                                     : Russian
Default                                  : Нет
Forced                                   : Нет
Аудио #4
Идентификатор                            : 5
Формат                                   : AC-3
Формат/Информация                        : Audio Coding 3
Расширение режима                        : CM (complete main)
Параметр Endianness формата              : Big
Идентификатор кодека                     : A_AC3
Продолжительность                        : 1 ч. 55 м.
Вид битрейта                             : Постоянный
Битрейт                                  : 192 Кбит/сек
Каналы                                   : 1 канал
Расположение каналов                     : Front: C
Частота                                  : 48,0 КГц
Битовая глубина                          : 16 бит
Метод сжатия                             : С потерями
Размер потока                            : 158 Мбайт (5%)
Заголовок                                : AVO AC3 1 ch 192 Kbps 48.0 KHz (Son´kin)
Язык                                     : Russian
Default                                  : Нет
Forced                                   : Нет
Аудио #5
Идентификатор                            : 6
Формат                                   : AC-3
Формат/Информация                        : Audio Coding 3
Расширение режима                        : CM (complete main)
Параметр Endianness формата              : Big
Идентификатор кодека                     : A_AC3
Продолжительность                        : 1 ч. 55 м.
Вид битрейта                             : Постоянный
Битрейт                                  : 384 Кбит/сек
Каналы                                   : 6 каналов
Расположение каналов                     : Front: L C R, Side: L R, LFE
Частота                                  : 48,0 КГц
Битовая глубина                          : 16 бит
Метод сжатия                             : С потерями
Размер потока                            : 316 Мбайт (11%)
Заголовок                                : Original AC3 6 ch 384 Kbps 48.0 KHz
Язык                                     : English
Default                                  : Нет
Forced                                   : Нет
Текст #1
Идентификатор                            : 7
Формат                                   : UTF-8
Идентификатор кодека                     : S_TEXT/UTF8
Идентификатор кодека/Информация          : UTF-8 Plain Text
Заголовок                                : RUS
Язык                                     : Russian
Default                                  : Нет
Forced                                   : Нет
Текст #2
Идентификатор                            : 8
Формат                                   : UTF-8
Идентификатор кодека                     : S_TEXT/UTF8
Идентификатор кодека/Информация          : UTF-8 Plain Text
Заголовок                                : Original
Язык                                     : English
Default                                  : Нет
Forced                                   : Нет

Благодарность

За исходник все благодарности
* За работу над дорогой #4 огромное спасибо super12308
Обе 6-канальные дорожки, взяты с DVD5, и подогнаны под BD, благодоря yangus.

Скриншоты


Релиз от: Rip by
[Профиль] [ЛС]

Создавать темы 06-Авг-2015 23:01 (спустя 9 месяцев 19 дней)

Топик был перенесен из форума Фильмы до 2014 года в форум Фильмы до 2012 года
sergej644
 
Кто просматривает тему:

Форум Тема Автор Размер
Обучающие видео Андрей Татауров | Экзамен на Права с 1-го раза! (Версия ПДД от 8 апреля 2014г.) [unpacked] KottoSoft 794 MB
Фильмы 2014 года Выпускной экзамен / À toute épreuve (Антуан Блоссер) [2014, Комедия] HDRip | P BOSS 1.37 GB
Разная литература Громаковский А.А. - 3 в 1. Все, что нужно для сдачи экзамена в ГИБДД (2016) PDF достали все 41 MB
Компьютерная литература (Программирование) Маклин Й., Томас О. - Учебный курс Microsoft MCTS (Экзамен 70-680). Установка и настройка Windows 7 [2011, PDF, RUS] TorrentFilm 789 MB
Фильмы 2011 года Ночь накануне экзаменов / Ночь перед экзаменами / Notte prima degli esami (Фаусто Брицци / Fausto Brizzi) [2006, Италия, Комедия, DVDRip] + Sub Rus + Original Ita painkiller 1.37 GB
Фильмы 2011 года Ночь накануне экзаменов / Ночь перед экзаменами / Notte prima degli esami (Фаусто Брицци / Fausto Brizzi) [2006, Италия, Комедия, DVDRip] DVO (IgVin & Solncekleshka) reversefile 1.37 GB
Apple Mac OS X (ОС и ПО) ПДД 2014 с иллюстрациями и комментариями. + Билеты для экзамена в ГИБДД. + Таблица штрафов [2.5, Справочники, iOS 6.1, RUS] reversefile 23 MB
Разное ПДД Россия 2015: Сдай экзамен! (2015) Android sergej644 13 MB
Показать сообщения:    

Текущее время: Сегодня 05:01

Часовой пояс: GMT



Вы не можете начинать темы
Вы не можете отвечать на сообщения
Вы не можете редактировать свои сообщения
Вы не можете удалять свои сообщения
Вы не можете голосовать в опросах
Вы не можете прикреплять файлы к сообщениям
Вы не можете скачивать файлы