Заложница / Taken (Пьер Морель / Pierre Morel) [2008, Франция, Боевик, криминал, HDTVRip] Dub

 
Автор Сообщение

painkiller ®

Стаж: 2 года 3 месяца

Сообщений: 582



Награды: Нет

Торрент-статистика

Создавать темы 14-Авг-2014 13:00

[Цитировать]

Заложница / Taken
Страна: Франция
Жанр: Боевик, криминал
Год выпуска: 2008
Продолжительность: 01:23:02
Перевод: Профессиональный (дублированный)
Cубтитры: нет
Оригинальная аудиодорожка: нет
Режиссер: Пьер Морель / Pierre Morel
В ролях: Лиам Нисон, Мэгги Грэйс, Фамке Янссен, Ксандер Беркли, Кэйти Кэссиди, Оливье Рабурдин, Лиланд Орсер, Джон Грис, Дэвид Уоршофски, Холли Вэлэнс, Натан Риппи, Камилла Япи, Николя Жиро, Жерар Уоткинс, Горан Костич, Маркус Линдси
Описание: Бывший секретный агент, а ныне одинокий неудачник, Брайан вынужден уступить напору экс-жены и дать согласие на поездку семнадцатилетней дочери в Европу на каникулы. Наивную девочку, а так же её подругу похищают албанские бандиты и собираются продать в рабство арабам. Взволнованный отец тут же едет во Францию, чтобы в одиночку спасти дочь…
Доп. информация: Рип с канала Первый HD. Из видеоряда удален логотип канала, остались периодические вставки с названием фильма. HDTV имеет иное наполнение кадра, чем BD и DVD http://screenshotcomparison.com/comparison/75837
Сэмпл: http://multi-up.com/975383
Качество видео: HDTVRip
Формат видео: AVI
Видео: MPEG4, XviD, 720x400 (16/9), 25.000 fps, 2 159 Kbps (0.300 bit/pixel)
Аудио: AC-3, 48.0 KHz, 2 ch, 192 Kbps, CBR

MediaInfo

Общее
Полное имя : K:\Заложница.avi
Формат : AVI
Формат/Информация : Audio Video Interleave
Размер файла : 1,37 Гбайт
Продолжительность : 1 ч. 23 м.
Общий поток : 2361 Кбит/сек
Название фильма : Заложница / Taken (2008)
Программа кодирования : VirtualDubMod 1.5.10.2 (build 2540/release)
Библиотека кодирования : VirtualDubMod build 2540/release
Правообладатель : miha2154
Видео
Идентификатор : 0
Формат : MPEG-4 Visual
Профиль формата : Advanced Simple@L5
Параметр BVOP формата : 2
Параметр QPel формата : Нет
Параметр GMC формата : Без точки перехода
Параметр матрицы формата : Default (MPEG)
Идентификатор кодека : XVID
Идентификатор кодека/Подсказка : XviD
Продолжительность : 1 ч. 23 м.
Битрейт : 2159 Кбит/сек
Ширина : 720 пикселей
Высота : 400 пикселей
Соотношение сторон : 16:9
Частота кадров : 25,000 кадров/сек
Цветовое пространство : YUV
Субдискретизация насыщенности : 4:2:0
Битовая глубина : 8 бит
Тип развёртки : Прогрессивная
Метод сжатия : С потерями
Бит/(Пиксели*Кадры) : 0.300
Размер потока : 1,25 Гбайт (91%)
Библиотека кодирования : XviD 1.1.0 (UTC 2005-11-22)
Аудио
Идентификатор : 1
Формат : AC-3
Формат/Информация : Audio Coding 3
Расширение режима : CM (complete main)
Параметр Endianness формата : Big
Идентификатор кодека : 2000
Продолжительность : 1 ч. 23 м.
Вид битрейта : Постоянный
Битрейт : 192 Кбит/сек
Каналы : 2 канала
Расположение каналов : Front: L R
Частота : 48,0 КГц
Битовая глубина : 16 бит
Метод сжатия : С потерями
Размер потока : 114 Мбайт (8%)
Выравнивание : Разделение по промежуткам
Продолжительность промежутка : 40 мс. (1,00 видеокадр)
Время предзагрузки промежутка : 500 мс.
Заголовок : Профессиональный (полное дублирование)

Скриншоты

[Профиль] [ЛС]

Создавать темы 06-Авг-2015 23:14 (спустя 11 месяцев 23 дня)

Топик был перенесен из форума Фильмы до 2014 года в форум Фильмы до 2012 года
sergej644
 

Создавать темы 12-Июн-2016 08:51 (спустя 1 год 9 месяцев)

Топик был перенесен из форума Фильмы 2011 года в форум Фильмы 2006-2008 года
Russian Mafia
 
Показать сообщения:    

Текущее время: Сегодня 10:52

Часовой пояс: GMT



Вы не можете начинать темы
Вы не можете отвечать на сообщения
Вы не можете редактировать свои сообщения
Вы не можете удалять свои сообщения
Вы не можете голосовать в опросах
Вы не можете прикреплять файлы к сообщениям
Вы не можете скачивать файлы