Закрытые пространства (Игорь Ворскла, Амурбек Гобашиев) [2008, Россия, драма, комедия, BDRip 720p] + Sub Rus

 
Автор Сообщение

TorrentFilm ®

Пол:

Стаж: 2 года

Сообщений: 7741



Награды: Нет

Торрент-статистика

Создавать темы 02-Янв-2016 00:01

[Цитировать]

Закрытые пространства- -Страна: Россия
Жанр: драма, комедия
Год выпуска: 2008
Продолжительность: 1:34:31-Перевод: Не требуется
Cубтитры: русские, английские-Режиссер: Игорь Ворскла, Амурбек Гобашиев-В ролях: Леонид Бичевин, Мария Машкова, Александр Ильин, Григорий Калинин, Олег Макаров, Артем Семакин, Нелли Уварова, Анатолий Узденский, Елена Шевченко, Александр Скляр-Описание: Молодая девушка Вика привозит по заказу пиццу в квартиру на мансардном этаже. Молодой человек расплачивается за заказ, после чего девушка обнаруживает, что дверь заперта. Парень объявляет о планах сексуального насилия в отношении пленницы и тут же начинает предпринимать попытки реализовать замысел... Отношения между героями, начавшись столь агрессивно, претерпят множество неожиданных трансформаций, вплоть до взаимной симпатии.- -Тип релиза: BDRip 720p-Видео: AVC, 1280x688 (1.860), 23.976 fps, 6 174 Kbps (0.292 bit/pixel)
Аудио: Русский, AC3, 6 ch, 448 Кбит/с-

MI

Общее
Уникальный идентификатор : 243739209027528540357355403598386424421 (0xB75E76D1241582CA96A4326F61ABEA65)
Полное имя : D:\_torrents\Zakrytyi.prostranstva.2008.н264.BDRip720p.mkv
Формат : Matroska
Версия формата : Version 2
Размер файла : 4,37 Гбайт
Продолжительность : 1 ч. 34 м.
Общий поток : 6618 Кбит/сек
Дата кодирования : UTC 2011-10-26 18:30:05
Программа кодирования : mkvmerge v4.9.1 ('Ich will') built on Jul 11 2011 23:53:15
Библиотека кодирования : libebml v1.2.1 + libmatroska v1.1.1
Видео
Идентификатор : 1
Формат : AVC
Формат/Информация : Advanced Video Codec
Профиль формата : High@L4.1
Параметр CABAC формата : Да
Параметр ReFrames формата : 6 кадров
Идентификатор кодека : V_MPEG4/ISO/AVC
Продолжительность : 1 ч. 34 м.
Битрейт : 6174 Кбит/сек
Ширина : 1280 пикселей
Высота : 688 пикселей
Соотношение сторон : 1,860
Частота кадров : 23,976 кадра/сек
Цветовое пространство : YUV
Субдискретизация насыщенности : 4:2:0
Битовая глубина : 8 бит
Тип развёртки : Прогрессивная
Бит/(Пиксели*Кадры) : 0.292
Размер потока : 3,99 Гбайт (91%)
Библиотека кодирования : x264 core 116 r2074 2641b9e
Настройки программы : cabac=1 / ref=6 / deblock=1:-2:-2 / analyse=0x3:0x113 / me=umh / subme=9 / psy=1 / psy_rd=1.00:0.15 / mixed_ref=1 / me_range=32 / chroma_me=1 / trellis=1 / 8x8dct=1 / cqm=0 / deadzone=21,11 / fast_pskip=1 / chroma_qp_offset=-3 / threads=6 / sliced_threads=0 / nr=0 / decimate=1 / interlaced=0 / bluray_compat=0 / constrained_intra=0 / bframes=4 / b_pyramid=2 / b_adapt=1 / b_bias=0 / direct=3 / weightb=1 / open_gop=0 / weightp=2 / keyint=250 / keyint_min=23 / scenecut=40 / intra_refresh=0 / rc_lookahead=50 / rc=2pass / mbtree=1 / bitrate=6174 / ratetol=1.0 / qcomp=0.80 / qpmin=0 / qpmax=69 / qpstep=4 / cplxblur=20.0 / qblur=0.5 / ip_ratio=1.40 / aq=1:1.00
Язык : English
Аудио
Идентификатор : 2
Формат : AC-3
Формат/Информация : Audio Coding 3
Расширение режима : CM (complete main)
Идентификатор кодека : A_AC3
Продолжительность : 1 ч. 34 м.
Вид битрейта : Постоянный
Битрейт : 448 Кбит/сек
Каналы : 6 каналов
Расположение каналов : Front: L C R, Side: L R, LFE
Частота : 48,0 КГц
Битовая глубина : 16 бит
Метод сжатия : С потерями
Размер потока : 303 Мбайт (7%)
Язык : Russian
Текст #1
Идентификатор : 3
Формат : UTF-8
Идентификатор кодека : S_TEXT/UTF8
Идентификатор кодека/Информация : UTF-8 Plain Text
Язык : Russian
Текст #2
Идентификатор : 4
Формат : UTF-8
Идентификатор кодека : S_TEXT/UTF8
Идентификатор кодека/Информация : UTF-8 Plain Text
Язык : English
Меню
00:00:00.000 : en:00:00:00.000
00:22:24.385 : en:00:22:24.385
00:33:38.516 : en:00:33:38.516
00:36:42.742 : en:00:36:42.742
00:46:33.916 : en:00:46:33.916
00:51:53.110 : en:00:51:53.110
00:57:26.401 : en:00:57:26.401
01:08:18.594 : en:01:08:18.594

Скриншоты

[Профиль] [ЛС]
Кто просматривает тему:

Форум Тема Автор Размер
XXXI Летние Олимпийские игры. Рио-де-Жанейро 2016 (Бразилия) XXXI Летние Олимпийские Игры. Рио-де-Жанейро (Бразилия). Церемония закрытия [Матч Игра HD] (2016) HDTV 1080i достали все 12.59 GB
XXXI Летние Олимпийские игры. Рио-де-Жанейро 2016 (Бразилия) XXXI Летние Олимпийские Игры. Рио-де-Жанейро (Бразилия). Церемония закрытия [Матч! Игра HD] [21.08] (2016) IPTVRip Russian Mafia 2.39 GB
Фильмы 2010 года Закрыто до сезона / Closed for the Season (Джей Волфел / Jay Woelfel) [2010, США, ужасы, сказка, DVDRip] VO (Хэм) TorrentFilm 1.34 GB
Фильмы (HD Rips | 720p, 1080p) Закрытые пространства (2008) BDRip 1080p sergej644 4.37 GB
Фильмы (HD Rips | 720p, 1080p) Закрытые пространства (Игорь Ворскла, Амурбек Гобашиев) [2008, Россия, драма, комедия, BDRip 1080p] + Sub Rus TorrentFilm 6.56 GB
Фильмы (HD Rips | 720p, 1080p) Закрытые пространства (Игорь Ворскла, Амурбек Гобашиев) [2008, Россия, драма, комедия, Blu-ray 1080p] + Sub Rus TorrentFilm 28 GB
Концерты Отечественных юмористов Михаил Задорнов / Закрыватель Америки [26.07] (2014) SATRip sergej644 1.34 GB
Показать сообщения:    

Текущее время: Сегодня 11:55

Часовой пояс: GMT



Вы не можете начинать темы
Вы не можете отвечать на сообщения
Вы не можете редактировать свои сообщения
Вы не можете удалять свои сообщения
Вы не можете голосовать в опросах
Вы не можете прикреплять файлы к сообщениям
Вы не можете скачивать файлы