Закрытые пространства (2008) BDRip 1080p

 
Автор Сообщение

sergej644 ®

Пол:

Стаж: 4 года 11 месяцев

Сообщений: 6038

Откуда: Soviet Union



Награды: Нет

Торрент-статистика

Создавать темы 27-Янв-2015 07:06

[Цитировать]

Информация о фильме
Название: Закрытые пространства
Год выхода: 2008
Жанр: драма, комедия
Режиссер: Игорь Ворскла, Амурбек Гобашиев
В ролях: Леонид Бичевин, Мария Машкова, Александр Ильин, Григорий Калинин, Олег Макаров, Артем Семакин, Нелли Уварова, Анатолий Узденский, Елена Шевченко, Александр Скляр
Сюжет фильма
Молодая девушка Вика привозит по заказу пиццу в квартиру на мансардном этаже. Молодой человек расплачивается за заказ, после чего девушка обнаруживает, что дверь заперта. Парень объявляет о планах сексуального насилия в отношении пленницы и тут же начинает предпринимать попытки реализовать замысел... Отношения между героями, начавшись столь агрессивно, претерпят множество неожиданных трансформаций, вплоть до взаимной симпатии.
Выпущено: Россия
Продолжительность: 01:34:31
Перевод: Не требуется
Субтитры: Нет
Файл
Качество: BDRip 1080p (исходник Blu-Ray)
Видео: 1920x1040, 6166 Кбит/сек, 23,976 кадр/сек, AVC, x264, High@L4.1, 1.85:1, 0.129 Бит/[Пиксели*Кадры], 2pass
Аудио: AC-3, 448 Кбит/сек, 6 канала(ов), 48,0 КГц
Чаптеры: Нет

Скриншоты

MediaInfo

General
Unique ID : 196783597201473373005324447908513213078 (0x940B2469EF9F01D7B085D074E4206A96)
Complete name : N:NoLimits-TeamЗакрытые пространства.(2008).BDRip.1080p.[NoLimits-Team].mkv
Format : Matroska
Format version : Version 2
File size : 4.37 GiB
Duration : 1h 34mn
Overall bit rate : 6 611 Kbps
Movie name : Закрытые пространства (2008).BDRip.1080p.[NoLimits-Team]
Encoded date : UTC 2012-11-13 13:46:42
Writing application : mkvmerge v5.8.0 ('No Sleep / Pillow') built on Sep 2 2012 15:37:04
Writing library : libebml v1.2.3 + libmatroska v1.3.0
Video
ID : 1
Format : AVC
Format/Info : Advanced Video Codec
Format profile : High@L4.1
Format settings, CABAC : Yes
Format settings, ReFrames : 4 frames
Codec ID : V_MPEG4/ISO/AVC
Duration : 1h 34mn
Bit rate : 6 166 Kbps
Width : 1 920 pixels
Height : 1 040 pixels
Display aspect ratio : 1.85:1
Frame rate mode : Constant
Frame rate : 23.976 fps
Color space : YUV
Chroma subsampling : 4:2:0
Bit depth : 8 bits
Scan type : Progressive
Bits/(Pixel*Frame) : 0.129
Stream size : 3.98 GiB (91%)
Title : Закрытые пространства.(2008).BDRip.1080p.[NoLimits-Team]
Writing library : x264 core 125 r2200 999b753
Encoding settings : cabac=1 / ref=4 / deblock=1:0:0 / analyse=0x3:0x133 / me=umh / subme=10 / psy=1 / psy_rd=1.00:0.00 / mixed_ref=1 / me_range=32 / chroma_me=1 / trellis=2 / 8x8dct=1 / cqm=0 / deadzone=21,11 / fast_pskip=0 / chroma_qp_offset=-2 / threads=9 / lookahead_threads=1 / sliced_threads=0 / nr=0 / decimate=1 / interlaced=0 / bluray_compat=0 / constrained_intra=0 / bframes=9 / b_pyramid=2 / b_adapt=2 / b_bias=0 / direct=3 / weightb=1 / open_gop=0 / weightp=2 / keyint=240 / keyint_min=24 / scenecut=40 / intra_refresh=0 / rc_lookahead=60 / rc=2pass / mbtree=1 / bitrate=6166 / ratetol=1.0 / qcomp=0.60 / qpmin=0 / qpmax=69 / qpstep=4 / cplxblur=20.0 / qblur=0.5 / ip_ratio=1.40 / aq=1:1.00
Language : English
Default : Yes
Forced : No
Audio
ID : 2
Format : AC-3
Format/Info : Audio Coding 3
Mode extension : CM (complete main)
Format settings, Endianness : Big
Codec ID : A_AC3
Duration : 1h 34mn
Bit rate mode : Constant
Bit rate : 448 Kbps
Channel(s) : 6 channels
Channel positions : Front: L C R, Side: L R, LFE
Sampling rate : 48.0 KHz
Bit depth : 16 bits
Compression mode : Lossy
Stream size : 303 MiB (7%)
Title : Русский
Default : Yes
Forced : No
[Профиль] [ЛС]
Кто просматривает тему:

Форум Тема Автор Размер
XXXI Летние Олимпийские игры. Рио-де-Жанейро 2016 (Бразилия) XXXI Летние Олимпийские Игры. Рио-де-Жанейро (Бразилия). Церемония закрытия [Матч Игра HD] (2016) HDTV 1080i достали все 12.59 GB
XXXI Летние Олимпийские игры. Рио-де-Жанейро 2016 (Бразилия) XXXI Летние Олимпийские Игры. Рио-де-Жанейро (Бразилия). Церемония закрытия [Матч! Игра HD] [21.08] (2016) IPTVRip Russian Mafia 2.39 GB
Фильмы 2010 года Закрыто до сезона / Closed for the Season (Джей Волфел / Jay Woelfel) [2010, США, ужасы, сказка, DVDRip] VO (Хэм) TorrentFilm 1.34 GB
Фильмы (HD Rips | 720p, 1080p) Закрытые пространства (Игорь Ворскла, Амурбек Гобашиев) [2008, Россия, драма, комедия, BDRip 1080p] + Sub Rus TorrentFilm 6.56 GB
Фильмы (HD Rips | 720p, 1080p) Закрытые пространства (Игорь Ворскла, Амурбек Гобашиев) [2008, Россия, драма, комедия, BDRip 720p] + Sub Rus TorrentFilm 4.37 GB
Фильмы (HD Rips | 720p, 1080p) Закрытые пространства (Игорь Ворскла, Амурбек Гобашиев) [2008, Россия, драма, комедия, Blu-ray 1080p] + Sub Rus TorrentFilm 28 GB
Концерты Отечественных юмористов Михаил Задорнов / Закрыватель Америки [26.07] (2014) SATRip sergej644 1.34 GB
Показать сообщения:    

Текущее время: Сегодня 22:11

Часовой пояс: GMT



Вы не можете начинать темы
Вы не можете отвечать на сообщения
Вы не можете редактировать свои сообщения
Вы не можете удалять свои сообщения
Вы не можете голосовать в опросах
Вы не можете прикреплять файлы к сообщениям
Вы не можете скачивать файлы