Закрыто до сезона / Closed for the Season (Джей Волфел / Jay Woelfel) [2010, США, ужасы, сказка, DVDRip] VO (Хэм)

 
Автор Сообщение

TorrentFilm ®

Пол:

Стаж: 2 года

Сообщений: 7741



Награды: Нет

Торрент-статистика

Создавать темы 27-Апр-2015 00:03

[Цитировать]

Закрыто до сезона / Closed for the Season
Страна: США
Жанр: ужасы, сказка
Год выпуска: 2010
Продолжительность: 1:49:26
Перевод: Одноголосый закадровый Хэм
Cубтитры: нет
Режиссер: Джей Волфел / Jay Woelfel
В ролях: Джо Ангер, Эйми Брукс, Дэмиан Маффей, Уильям Уотерс
Описание: Двое разнополых существ случайно встречаются в заброшенном парке развлечений, откуда они не могут выбраться. Парочка сюрреалистично шатается по территории, проживает истории из паркового прошлого и сопровождается полупризрачным проводником-карнавальщиком, который представляет для них как угрозу, так и некий путь к спасению.
Доп. информация: IaMDeBil
Сэмпл: http://multi-up.com/1043061
Качество видео: DVDRip
Формат видео: AVI
Видео: XVID, 640x352, 16:9, 25,0 fps, 1551 kbps
Аудио: MP3, 48 khz, 192 kbps, 2.0

MediaInfo

General
Complete name : D:\ClosedForTheSeason.2010.avi
Format : AVI
Format/Info : Audio Video Interleave
File size : 1.34 GiB
Duration : 1h 49mn
Overall bit rate : 1 752 Kbps
Writing application : VirtualDubMod 1.5.10.2 (build 2540/release)
Writing library : VirtualDub build 32817/release
Video
ID : 0
Format : MPEG-4 Visual
Format profile : Advanced Simple@L5
Format settings, BVOP : 2
Format settings, QPel : No
Format settings, GMC : No warppoints
Format settings, Matrix : Default (MPEG)
Muxing mode : Packed bitstream
Codec ID : XVID
Codec ID/Hint : XviD
Duration : 1h 49mn
Bit rate : 1 551 Kbps
Width : 640 pixels
Height : 352 pixels
Display aspect ratio : 16:9
Frame rate : 25.000 fps
Color space : YUV
Chroma subsampling : 4:2:0
Bit depth : 8 bits
Scan type : Progressive
Compression mode : Lossy
Bits/(Pixel*Frame) : 0.275
Stream size : 1.19 GiB (89%)
Writing library : XviD 1.2.1 (UTC 2008-12-04)
Audio
ID : 1
Format : MPEG Audio
Format version : Version 1
Format profile : Layer 3
Mode : Joint stereo
Codec ID : 55
Codec ID/Hint : MP3
Duration : 1h 49mn
Bit rate mode : Constant
Bit rate : 192 Kbps
Channel(s) : 2 channels
Sampling rate : 48.0 KHz
Compression mode : Lossy
Stream size : 150 MiB (11%)
Alignment : Split accross interleaves
Interleave, duration : 40 ms (1.00 video frame)
Interleave, preload duration : 500 ms

Скриншоты

[Профиль] [ЛС]

Создавать темы 06-Авг-2015 22:35 (спустя 3 месяца 9 дней)

Топик был перенесен из форума Фильмы до 2014 года в форум Фильмы до 2012 года
sergej644
 

Создавать темы 12-Июн-2016 07:54 (спустя 1 год 1 месяц)

Топик был перенесен из форума Фильмы 2011 года в форум Фильмы 2010 года
Russian Mafia
 
Кто просматривает тему:

Форум Тема Автор Размер
XXXI Летние Олимпийские игры. Рио-де-Жанейро 2016 (Бразилия) XXXI Летние Олимпийские Игры. Рио-де-Жанейро (Бразилия). Церемония закрытия [Матч Игра HD] (2016) HDTV 1080i достали все 12.59 GB
XXXI Летние Олимпийские игры. Рио-де-Жанейро 2016 (Бразилия) XXXI Летние Олимпийские Игры. Рио-де-Жанейро (Бразилия). Церемония закрытия [Матч! Игра HD] [21.08] (2016) IPTVRip Russian Mafia 2.39 GB
Фильмы (HD Rips | 720p, 1080p) Закрытые пространства (2008) BDRip 1080p sergej644 4.37 GB
Фильмы (HD Rips | 720p, 1080p) Закрытые пространства (Игорь Ворскла, Амурбек Гобашиев) [2008, Россия, драма, комедия, BDRip 1080p] + Sub Rus TorrentFilm 6.56 GB
Фильмы (HD Rips | 720p, 1080p) Закрытые пространства (Игорь Ворскла, Амурбек Гобашиев) [2008, Россия, драма, комедия, BDRip 720p] + Sub Rus TorrentFilm 4.37 GB
Фильмы (HD Rips | 720p, 1080p) Закрытые пространства (Игорь Ворскла, Амурбек Гобашиев) [2008, Россия, драма, комедия, Blu-ray 1080p] + Sub Rus TorrentFilm 28 GB
Концерты Отечественных юмористов Михаил Задорнов / Закрыватель Америки [26.07] (2014) SATRip sergej644 1.34 GB
Показать сообщения:    

Текущее время: Сегодня 20:44

Часовой пояс: GMT



Вы не можете начинать темы
Вы не можете отвечать на сообщения
Вы не можете редактировать свои сообщения
Вы не можете удалять свои сообщения
Вы не можете голосовать в опросах
Вы не можете прикреплять файлы к сообщениям
Вы не можете скачивать файлы