Закон рынка / La loi du marché (2015) BDRip 1080p | P

 
Автор Сообщение

достали все ®

Пол:

Стаж: 1 год 8 месяцев

Сообщений: 6554



Награды: 12 (Подробнее)

Mega Releaser 1 (Количество: 1) Mega Seeder 1 (Количество: 1) Top Releaser 3 (Количество: 1)
Торрент-статистика

Создавать темы 24-Июн-2016 09:46

[Цитировать]

Информация о фильме
Название: Закон рынка
Оригинальное название: La loi du marché
Год выхода: 2015
Жанр: Драма
Режиссер: Стефан Бризе
В ролях: Венсан Линдон, Карин де Мирбек, Маттье Шаллер, Ив Ори, Ксавьер Мэтью, Пол Портолоу, Пьер-Жан Фельд, Филипп Веско, Христоф Россигнон, Ноэль Мэйро
О фильме: Тьерри 51 год, его жизнь не проста, но он умеет радоваться мелочам. После почти двух лет безработицы и жизни на пособии он наконец устраивается охранником в супермаркет. Казалось, одной проблемой меньше, но вскоре Тьерри сталкивается с дилеммой. Обстоятельства и долг заставляют его выбирать между справедливостью и милосердием. На что готов пойти человек в страхе потерять доставшееся с трудом место работы?.

Выпущено: Франция / Arte France, Canal+ [fr]
Продолжительность: 01:31:23
Перевод: Профессиональный (многоголосый, закадровый) [Официальный звук]
Файл
Формат: MKV
Качество: BDRip 1080p
Видео: MPEG-4 AVC, 11.7 Мb/s, 1920x800
Аудио: Russian: AC3, 192 kb/s (2 ch) / French: DTS, 768 kb/s (6 ch)
Субтитры: French

MI

Общее
Уникальный идентификатор : 185679963296826202432968187740102856232 (0x8BB0A8FED80464E79075FE5551B80E28)
Полное имя : D:загрузкиZakon.rInka.2015.P.1080p.BluRay.mkv
Формат : Matroska
Версия формата : Version 4 / Version 2
Размер файла : 8,07 Гбайт
Продолжительность : 1 ч. 31 м.
Общий поток : 12,6 Мбит/сек
Дата кодирования : UTC 2016-06-23 23:41:41
Программа кодирования : mkvmerge v8.3.0 ('Over the Horizon') 64bit
Библиотека кодирования : libebml v1.3.1 + libmatroska v1.4.2
Видео
Идентификатор : 1
Формат : AVC
Формат/Информация : Advanced Video Codec
Профиль формата : High@L4.1
Параметр CABAC формата : Да
Параметр ReFrames формата : 5 кадров
Идентификатор кодека : V_MPEG4/ISO/AVC
Продолжительность : 1 ч. 31 м.
Битрейт : 11,7 Мбит/сек
Ширина : 1920 пикселей
Высота : 800 пикселей
Соотношение сторон : 2,40:1
Режим частоты кадров : Постоянный
Частота кадров : 23,976 кадра/сек
Цветовое пространство : YUV
Субдискретизация насыщенности : 4:2:0
Битовая глубина : 8 бит
Тип развёртки : Прогрессивная
Бит/(Пиксели*Кадры) : 0.317
Размер потока : 7,30 Гбайт (90%)
Заголовок : Zakon.rInka.2015.P.1080p.BluRay
Библиотека кодирования : x264 core 129 r2245 bc13772
Настройки программы : cabac=1 / ref=5 / deblock=1:-3:-3 / analyse=0x3:0x133 / me=umh / subme=11 / psy=1 / psy_rd=1.05:0.05 / mixed_ref=1 / me_range=64 / chroma_me=1 / trellis=2 / 8x8dct=1 / cqm=0 / deadzone=21,11 / fast_pskip=0 / chroma_qp_offset=-3 / threads=6 / lookahead_threads=1 / sliced_threads=0 / nr=0 / decimate=1 / interlaced=0 / bluray_compat=0 / constrained_intra=0 / bframes=8 / b_pyramid=2 / b_adapt=2 / b_bias=0 / direct=3 / weightb=1 / open_gop=0 / weightp=2 / keyint=250 / keyint_min=23 / scenecut=40 / intra_refresh=0 / rc_lookahead=60 / rc=2pass / mbtree=1 / bitrate=11688 / ratetol=1.0 / qcomp=0.60 / qpmin=0 / qpmax=69 / qpstep=4 / cplxblur=20.0 / qblur=0.5 / vbv_maxrate=40000 / vbv_bufsize=30000 / nal_hrd=none / ip_ratio=1.40 / aq=1:0.80
Язык : English
Default : Да
Forced : Нет
Аудио #1
Идентификатор : 2
Формат : AC-3
Формат/Информация : Audio Coding 3
Расширение режима : CM (complete main)
Параметр Endianness формата : Big
Идентификатор кодека : A_AC3
Продолжительность : 1 ч. 31 м.
Вид битрейта : Постоянный
Битрейт : 192 Кбит/сек
Каналы : 2 канала
Расположение каналов : Front: L R
Частота : 48,0 КГц
Битовая глубина : 16 бит
Метод сжатия : С потерями
Размер потока : 126 Мбайт (2%)
Заголовок : P
Язык : Russian
Default : Да
Forced : Нет
Аудио #2
Идентификатор : 3
Формат : DTS
Формат/Информация : Digital Theater Systems
Режим : 16
Параметр Endianness формата : Big
Идентификатор кодека : A_DTS
Продолжительность : 1 ч. 31 м.
Вид битрейта : Постоянный
Битрейт : 768 Кбит/сек
Каналы : 2 канала
Расположение каналов : Front: L R
Частота : 48,0 КГц
Битовая глубина : 24 бит
Метод сжатия : С потерями
Размер потока : 502 Мбайт (6%)
Язык : French
Default : Нет
Forced : Нет
Текст
Идентификатор : 4
Формат : UTF-8
Идентификатор кодека : S_TEXT/UTF8
Идентификатор кодека/Информация : UTF-8 Plain Text
Язык : French
Default : Нет
Forced : Нет
Меню
00:00:00.000 : en:00:00:00.000
00:04:12.669 : en:00:04:12.669
00:06:15.249 : en:00:06:15.249
00:09:54.427 : en:00:09:54.427
00:15:25.549 : en:00:15:25.549
00:19:04.810 : en:00:19:04.810
00:23:43.505 : en:00:23:43.505
00:33:26.212 : en:00:33:26.212
00:38:35.187 : en:00:38:35.187
00:44:00.304 : en:00:44:00.304
00:47:55.706 : en:00:47:55.706
00:50:54.468 : en:00:50:54.468
00:56:22.921 : en:00:56:22.921
01:00:36.549 : en:01:00:36.549
01:06:20.935 : en:01:06:20.935
01:07:59.158 : en:01:07:59.158
01:14:45.022 : en:01:14:45.022
01:18:25.450 : en:01:18:25.450
01:23:26.334 : en:01:23:26.334
01:28:17.375 : en:01:28:17.375

Скриншоты

]



[Профиль] [ЛС]
Показать сообщения:    

Текущее время: Сегодня 21:00

Часовой пояс: GMT



Вы не можете начинать темы
Вы не можете отвечать на сообщения
Вы не можете редактировать свои сообщения
Вы не можете удалять свои сообщения
Вы не можете голосовать в опросах
Вы не можете прикреплять файлы к сообщениям
Вы не можете скачивать файлы