Закон моей страны / La loi de mon pays (Доминик Ладож / Dominique Ladoge) [2010, Франция, историческая драма, экранизация, DVB] Original (Fre) + Sub (Rus, Eng, Fre, Deu)

 
Автор Сообщение

TorrentFilm ®

Пол:

Стаж: 2 года

Сообщений: 7741



Награды: Нет

Торрент-статистика

Создавать темы 28-Мар-2016 00:00

[Цитировать]

Закон моей страны
La loi de mon pays- Страна: Франция
Жанр: историческая драма, экранизация
Год выпуска: 2010
Продолжительность: 01:31:24
Перевод: Субтитры (перевод И.Рыбкиной, Éclair Group)
Cубтитры: русские, английские, французские, немецкие, нидерландские, румынские
Оригинальная аудиодорожка: французский
Режиссер: Доминик Ладож / Dominique LadogeВ ролях: Александр Амиди / Alexandre Hamidi (Antoine), Ноам Моргенштерн / Noam Morgensztern (Benjamin), Азден Келуа / Azdine Keloua (Kateb), Шарлотт де Тюркейм / Charlotte de Turckheim (Estelle Seban), Бернар Бланкан / Bernard Blancan (Lucien Grammatico)
Описание: По книге Бенжамена Стора / Benjamin Stora "Три изгоя – евреи Алжира / Les Trois exils des Juifs d'Algérie" (2006).
Фильм снят по реальным событиям. Он рассказывает о дружбе троих парней во Французском Алжире в конце лета 1940 года: это еврей, араб и христианин, объединенные страстью к футболу. После отмены правительством Виши Декрета Кремьё (1870), обеспечивавшего полное гражданство для евреев во франкоговорящей части, находящейся тогда под властью Алжира, евреи потеряли право на французское гражданство. Теперь некогда абстрактный вопрос о гражданстве неожиданно становится для троих камнем преткновения…
Доп. информация: Hot Bird (13.0°E) TV5MONDE Europe DVB-S. Во время нефранцузской речи на экране дополнительно вшитые французские субтитры.
Награды: награды Festival de Télévision de la Rochelle 2010 за лучшие мужские роли всем троим исполнителям (Alexandre Hamidi, Noam Morgensztern, Azdine Keloua).

Качество видео: DVB
Формат видео: TS
Видео: MPEG Video 2, 720x576@1024x576 (16:9), 25 fps, ~3251 kbps avg, 0.311 bit/pixel
Аудио: MPEG Audio 2, 2 ch, 48 kHz, 192 kbps - французский
Формат субтитров: PGS

MediaInfo

GeneralID : 1 (0x1)Complete name : [apreder]La_loi_de_mon_pays(2010)DVB.tsFormat : MPEG-TSFile size : 2.31 GiBDuration : 1h 31mnOverall bit rate mode : VariableOverall bit rate : 3 624 KbpsMaximum Overall bit rate : 35.5 Mbps
VideoID : 4113 (0x1011)Menu ID : 1 (0x1)Format : MPEG VideoFormat version : Version 2Format profile : Main@MainFormat settings, BVOP : YesFormat settings, Matrix : CustomFormat settings, GOP : VariableFormat settings, picture structure : FrameCodec ID : 2Duration : 1h 31mnBit rate mode : VariableBit rate : 3 251 KbpsWidth : 720 pixelsHeight : 576 pixelsDisplay aspect ratio : 16:9Frame rate : 25.000 fpsStandard : PALColor space : YUVChroma subsampling : 4:2:0Bit depth : 8 bitsScan type : InterlacedScan order : Top Field FirstCompression mode : LossyBits/(Pixel*Frame) : 0.314Time code of first frame : 00:00:00:00Time code source : Group of pictures headerGOP, Open/Closed : OpenGOP, Open/Closed of first frame : ClosedStream size : 2.08 GiB (90%)
AudioID : 4352 (0x1100)Menu ID : 1 (0x1)Format : MPEG AudioFormat version : Version 1Format profile : Layer 2Mode : Joint stereoMode extension : Intensity Stereo + MS StereoCodec ID : 4Duration : 1h 31mnBit rate mode : ConstantBit rate : 192 KbpsChannel(s) : 2 channelsSampling rate : 48.0 KHzCompression mode : LossyStream size : 126 MiB (5%)Language : French
Text #1ID : 4608 (0x1200)Menu ID : 1 (0x1)Format : PGSCodec ID : 144Duration : 1h 31mnDelay relative to video : 1s 520msLanguage : Russian
Text #2ID : 4609 (0x1201)Menu ID : 1 (0x1)Format : PGSCodec ID : 144Duration : 1h 31mnDelay relative to video : 1s 440msLanguage : English
Text #3ID : 4610 (0x1202)Menu ID : 1 (0x1)Format : PGSCodec ID : 144Duration : 1h 31mnDelay relative to video : 1s 480msLanguage : French
Text #4ID : 4611 (0x1203)Menu ID : 1 (0x1)Format : PGSCodec ID : 144Duration : 1h 31mnDelay relative to video : 1s 520msLanguage : German
Text #5ID : 4612 (0x1204)Menu ID : 1 (0x1)Format : PGSCodec ID : 144Duration : 1h 31mnDelay relative to video : 1s 480msLanguage : Dutch
Text #6ID : 4613 (0x1205)Menu ID : 1 (0x1)Format : PGSCodec ID : 144Duration : 1h 31mnDelay relative to video : 1s 560msLanguage : Romanian

Скриншот c названием фильма

Скриншоты


Резервные скриншоты


- [1'590]
[Профиль] [ЛС]

Создавать темы 12-Июн-2016 07:53 (спустя 2 месяца 15 дней)

Топик был перенесен из форума Фильмы 2011 года в форум Фильмы 2010 года
Russian Mafia
 
Показать сообщения:    

Текущее время: Сегодня 06:27

Часовой пояс: GMT



Вы не можете начинать темы
Вы не можете отвечать на сообщения
Вы не можете редактировать свои сообщения
Вы не можете удалять свои сообщения
Вы не можете голосовать в опросах
Вы не можете прикреплять файлы к сообщениям
Вы не можете скачивать файлы