Законопослушный гражданин / Law Abiding Citizen (Ф. Гари Грей / F. Gary Gray) [2009, США, Триллер, драма, криминал, BDRip-AVC] [Unrated Directors Cut] Dub + Sub Rus, Eng

 
Автор Сообщение

TorrentFilm ®

Пол:

Стаж: 2 года

Сообщений: 7741



Награды: Нет

Торрент-статистика

Создавать темы 26-Апр-2015 00:04

[Цитировать]

Законопослушный гражданин [Расширенная режиссерская версия] / Law Abiding Citizen [Unrated Directors Cut]
Страна: США
Жанр: Триллер, драма, криминал
Год выпуска: 2009
Продолжительность: 01:58:06
Перевод: Профессиональный (дублированный) - Творческое объединение Дия (со вставками многоголосного (Киномания))
Cубтитры: русские, английские
Режиссер: Ф. Гари Грей / F. Gary Gray
В ролях: Джейми Фокс, Джерард Батлер, Колм Мини, Брюс МакГилл, Лесли Бибб, Майкл Ирби, Грегори Итцин, Реджина Холл, Кристиан Столте
Описание: Добропорядочный житель Филадельфии Клайд Шелтон теряет семью в результате бандитского нападения. Но когда преступники оказались в руках правосудия, выяснилось, что юридической Системе удобнее пойти на сделку с одним из бандитов, чтобы дать высшую меру другому. Помощник окружного прокурора Ник Райс идет на эту сделку, вопреки протестам возмущенного Шелтона, свято верящего в безукоризненность Закона. Но его права были попраны… И тогда спустя годы безвестный мститель начинает творить собственную расправу над убийцами. Ник Райс достаточно быстро находит его. Это… Клайд Шелтон. Райсу кажется, что ему нетрудно добиться признания от раздавленного семейной трагедией Клайда. Каково же изумление всех работников Системы, когда они обнаруживают, что даже помещенный в тюрьму, этот человек способен на самую жестокую и изощренную месть. Более того, они оказались совершенно бессильны перед гениальной игрой и смертоносными ударами изолированного в одиночке Шелтона! Законопослушный гражданин начал беспощадную войну против всех них. И дело вовсе не в мести…

Сэмпл: http://sendfile.su/1111726
Качество видео: BDRip-AVC
Формат видео: MKV
Видео: 1024x432 (2.40:1), 23.976 fps, MPEG4-AVC ~1 574 kbps avg, 0.148 bit/pixel
Аудио: 48 kHz, AC3 Dolby Digital, 2 ch, ~192 kbps
Формат субтитров: softsub (SRT) - UTF-8
Навигация: 17 глав

x264

x264 [info]: frame I:1531 Avg QP:14.01 size: 57518
x264 [info]: frame P:45932 Avg QP:17.04 size: 17183
x264 [info]: frame B:122433 Avg QP:19.50 size: 4223
x264 [info]: consecutive B-frames: 1.8% 7.6% 34.8% 18.1% 11.4% 11.3% 10.3% 4.7%
x264 [info]: mb I I16..4: 41.1% 0.0% 58.9%
x264 [info]: mb P I16..4: 21.9% 0.0% 0.0% P16..4: 71.6% 0.0% 0.0% 0.0% 0.0% skip: 6.5%
x264 [info]: mb B I16..4: 5.2% 0.0% 0.0% B16..8: 37.2% 0.0% 0.0% direct: 4.0% skip:53.6% L0:42.5% L1:33.1% BI:24.4%
x264 [info]: direct mvs spatial:92.2% temporal:7.8%
x264 [info]: coded y,uvDC,uvAC intra: 76.2% 44.5% 18.0% inter: 22.6% 13.2% 4.0%
x264 [info]: i16 v,h,dc,p: 18% 13% 40% 29%
x264 [info]: i4 v,h,dc,ddl,ddr,vr,hd,vl,hu: 20% 16% 17% 6% 8% 8% 7% 8% 10%
x264 [info]: i8c dc,h,v,p: 33% 38% 18% 10%
x264 [info]: Weighted P-Frames: Y:6.9% UV:2.6%
x264 [info]: ref P L0: 50.8% 9.7% 14.7% 7.2% 4.9% 3.8% 3.1% 1.8% 1.5% 1.3% 1.2% 0.1%
x264 [info]: ref B L0: 65.8% 13.4% 7.9% 3.9% 2.8% 2.3% 1.9% 1.1% 0.9%
x264 [info]: kb/s:1574.15

MediaInfo

Формат : Matroska
Версия формата : Version 2
Размер файла : 1,46 Гбайт
Продолжительность : 1 ч. 58 м.
Общий поток : 1768 Кбит/сек
Название фильма : Law Abiding Citizen [Unrated Directors Cut] 2009 - WazZzuP
Дата кодирования : UTC 2015-04-25 09:17:19
Программа кодирования : mkvmerge v5.8.0 ('No Sleep / Pillow') built on Sep 2 2012 15:37:04
Библиотека кодирования : libebml v1.2.3 + libmatroska v1.3.0
Attachment : Yes
Видео
Идентификатор : 1
Формат : AVC
Формат/Информация : Advanced Video Codec
Профиль формата : Main@L4.1
Параметр CABAC формата : Да
Параметр ReFrames формата : 10 кадров
Идентификатор кодека : V_MPEG4/ISO/AVC
Продолжительность : 1 ч. 58 м.
Битрейт : 1574 Кбит/сек
Ширина : 1024 пикселя
Высота : 432 пикселя
Соотношение сторон : 2,40:1
Режим частоты кадров : Постоянный
Частота кадров : 23,976 кадра/сек
Цветовое пространство : YUV
Субдискретизация насыщенности : 4:2:0
Битовая глубина : 8 бит
Тип развёртки : Прогрессивная
Бит/(Пиксели*Кадры) : 0.148
Размер потока : 1,27 Гбайт (87%)
Заголовок : Rip by zzZGVvv
Библиотека кодирования : x264 core 125 r2208 d9d2288
Настройки программы : cabac=1 / ref=10 / deblock=1:-3:-2 / analyse=0x1:0 / me=umh / subme=9 / psy=0 / mixed_ref=1 / me_range=24 / chroma_me=0 / trellis=2 / 8x8dct=0 / cqm=0 / deadzone=21,11 / fast_pskip=0 / chroma_qp_offset=0 / threads=3 / lookahead_threads=1 / sliced_threads=0 / nr=0 / decimate=0 / interlaced=0 / bluray_compat=0 / constrained_intra=0 / bframes=7 / b_pyramid=0 / b_adapt=2 / b_bias=0 / direct=3 / weightb=1 / open_gop=0 / weightp=2 / keyint=240 / keyint_min=23 / scenecut=40 / intra_refresh=0 / rc=2pass / mbtree=0 / bitrate=1574 / ratetol=1.0 / qcomp=0.50 / qpmin=0 / qpmax=51 / qpstep=4 / cplxblur=20.0 / qblur=0.5 / ip_ratio=1.40 / pb_ratio=1.30 / aq=1:0.70
Язык : Russian
Default : Да
Forced : Да
Аудио
Идентификатор : 2
Формат : AC-3
Формат/Информация : Audio Coding 3
Расширение режима : CM (complete main)
Параметр Endianness формата : Big
Идентификатор кодека : A_AC3
Продолжительность : 1 ч. 58 м.
Вид битрейта : Постоянный
Битрейт : 192 Кбит/сек
Каналы : 2 канала
Расположение каналов : Front: L R
Частота : 48,0 КГц
Битовая глубина : 16 бит
Метод сжатия : С потерями
Размер потока : 162 Мбайт (11%)
Заголовок : Профессиональный (дублированный)
Язык : Russian
Default : Да
Forced : Да
Текст #1
Идентификатор : 3
Формат : UTF-8
Идентификатор кодека : S_TEXT/UTF8
Идентификатор кодека/Информация : UTF-8 Plain Text
Заголовок : Full
Язык : Russian
Default : Нет
Forced : Нет
Текст #2
Идентификатор : 4
Формат : UTF-8
Идентификатор кодека : S_TEXT/UTF8
Идентификатор кодека/Информация : UTF-8 Plain Text
Заголовок : Full
Язык : English
Default : Нет
Forced : Нет
Меню
00:00:00.000 : :01- Law Abiding Citizen
00:03:51.895 : :02- Law Abiding Citizen
00:11:57.466 : :03- Law Abiding Citizen
00:20:41.740 : :04- Law Abiding Citizen
00:29:01.239 : :05- Law Abiding Citizen
00:39:48.094 : :06- Law Abiding Citizen
00:43:34.527 : :07- Law Abiding Citizen
00:50:00.913 : :08- Law Abiding Citizen
00:58:59.827 : :09- Law Abiding Citizen
01:07:36.802 : :10- Law Abiding Citizen
01:16:41.386 : :11- Law Abiding Citizen
01:23:25.917 : :12- Law Abiding Citizen
01:29:52.220 : :13- Law Abiding Citizen
01:37:04.944 : :14- Law Abiding Citizen
01:42:41.238 : :15- Law Abiding Citizen
01:50:46.845 : :16- Law Abiding Citizen
01:58:05.828 : :17- Law Abiding Citizen

Скриншот c названием фильма

Скриншоты

[Профиль] [ЛС]

Создавать темы 06-Авг-2015 22:35 (спустя 3 месяца 10 дней)

Топик был перенесен из форума Фильмы до 2014 года в форум Фильмы до 2012 года
sergej644
 

Создавать темы 12-Июн-2016 08:49 (спустя 1 год 1 месяц)

Топик был перенесен из форума Фильмы 2011 года в форум Фильмы 2009 года
Russian Mafia
 
Показать сообщения:    

Текущее время: Сегодня 00:37

Часовой пояс: GMT



Вы не можете начинать темы
Вы не можете отвечать на сообщения
Вы не можете редактировать свои сообщения
Вы не можете удалять свои сообщения
Вы не можете голосовать в опросах
Вы не можете прикреплять файлы к сообщениям
Вы не можете скачивать файлы