Законный брак (Альберт Мкртчян) [1985, мелодрама, DVB]

 
Автор Сообщение

reversefile ®

Пол:

Стаж: 4 года 5 месяцев

Сообщений: 842

Откуда: ReverseFile.org



Награды: Нет

Торрент-статистика

Создавать темы 25-Июл-2014 01:08

[Цитировать]

Законный брак
29.06.14 торрент обновлен, запись трансляции ТК "Дом Кино" заменена на запись трансляции ТК "Россия К", любезно предоставленную коллегой ItarTass
Жанр: мелодрама
Год выпуска: 1985
Продолжительность: 01:26:59
Режиссёр: Альберт С. Мкртчян
В ролях: Наталия Белохвостикова, Игорь Костолевский, Альбина Матвеева, Эрнст Романов, Елена Санаева, Михаил Неганов, Александр Шворин, Владимир Седов, Николай Прокопович, Булат Окуджава, Вадим Александров, Тамара Совчи, Лилия Яппарова, Валентина Ананьина, Анастасия Белова, Лариса Белогурова, Наталья Горленко, Игорь Кашинцев, Галина Комарова, Наталья Наумова, Петр Крылов, Владимир Кулешов, Василий Маслаков, Раднэр Муратов, Зоя Степанова, Валентин Печников, Галина Шостко, Людмила Давыдова, Алексей Дроздов, Виктор Маркин
Описание: Они познакомились в Ташкенте осенью 1941. Он - актер московского театра, она - учительница музыки, тоже из Москвы. Заболев малярией, она не смогла получить разрешения на выезд из города с неподходящим для выздоровления климатом. Тогда он предложил ей фиктивный брак...
Доп. информация: Запись потока *.ts со спутника ЭКСПРЕСС АМ33, 96.5° в.д., микширование в *.mpg программой VideoReDo.
Качество видео: DVB
Формат видео: MPEG-PS
Видео: MPEG Video, 720x576 (4:3), 25,000 кадров/сек, 5084 Кбит/сек
Аудио: MPEG Audio, 48,0 КГц, 192 Кбит/сек, 2 канала

MediaInfo

Общее
Полное имя : D:\Recordings\Законный брак (1985)(DVB)Nostalgy.mpg
Формат : MPEG-PS
Размер файла : 3,31 Гбайт
Продолжительность : 1 ч. 26 м.
Режим общего битрейта : Переменный
Общий поток : 5448 Кбит/сек
Видео
Идентификатор : 224 (0xE0)
Формат : MPEG Video
Версия формата : Version 2
Профиль формата : Main@Main
Параметр BVOP формата : Да
Параметр матрицы формата : Выборочная
Параметр GOP формата : M=3, N=15
Продолжительность : 1 ч. 26 м.
Вид битрейта : Переменный
Битрейт : 5084 Кбит/сек
Максимальный битрейт : 15,0 Мбит/сек
Ширина : 720 пикселей
Высота : 576 пикселей
Соотношение сторон : 4:3
Частота кадров : 25,000 кадров/сек
Стандарт вещания : PAL
Цветовое пространство : YUV
Субдискретизация насыщенности : 4:2:0
Битовая глубина : 8 бит
Тип развёртки : Чересстрочная
Порядок развёртки : Верхнее поле первое
Метод сжатия : С потерями
Бит/(Пиксели*Кадры) : 0.490
Временной код первого кадра : 00:00:00:00
Оригинал временного кода : Group of pictures header
Размер потока : 3,09 Гбайт (93%)
Аудио
Идентификатор : 192 (0xC0)
Формат : MPEG Audio
Версия формата : Version 1
Профиль формата : Layer 2
Продолжительность : 1 ч. 26 м.
Вид битрейта : Постоянный
Битрейт : 256 Кбит/сек
Каналы : 2 канала
Частота : 48,0 КГц
Метод сжатия : С потерями
Размер потока : 159 Мбайт (5%)
[Профиль] [ЛС]

Создавать темы 06-Авг-2015 22:06 (спустя 1 год)

Топик был перенесен из форума Кино СССР в форум Кино СССР
sergej644
 
Показать сообщения:    

Текущее время: Сегодня 00:36

Часовой пояс: GMT



Вы не можете начинать темы
Вы не можете отвечать на сообщения
Вы не можете редактировать свои сообщения
Вы не можете удалять свои сообщения
Вы не можете голосовать в опросах
Вы не можете прикреплять файлы к сообщениям
Вы не можете скачивать файлы