Заколдованное королевство 3D / BBC. Enchanted Kingdom 3D (Патрик Моррис, Нил Найтингейл / Patrick Morris, Neil Nightingale) [2013, документальный, видовая документалистика, BDRip 1080p]

 
Автор Сообщение

TorrentFilm ®

Пол:

Стаж: 1 год 11 месяцев

Сообщений: 7741



Награды: Нет

Торрент-статистика

Создавать темы 06-Янв-2015 00:01

[Цитировать]

Заколдованное королевство / Enchanted Kingdom
Год выпуска: 2013
Страна: Великобритания
Студия: BBC Earth Films, Reliance Entertainment, IM Global, Evergreen Studios
Жанр: документальный, видовая документалистика
Продолжительность: 01:27:19
Перевод: Одноголосый закадровый - Омикрон
Перевод 2: Одноголосый закадровый - Д. Есарев
Субтитры: русские, английские
Режиссёр: Патрик Моррис, Нил Найтингейл / Patrick Morris, Neil Nightingale
Рассказчик: Идрис Эльба / Idris Elba
Описание: Документальный фильм о дикой природе Африки, снятый за 500 дней с применением новейших инновационных 3D технологий, является самым амбициозным и зрелищным проектом о живой природе известнейшего мирового производителя фильмов об истории Земли - компании BBC.
Доп. информация: Рип от ollan, за русскую озвучку спасибо пользователям HDclub: gelom, Turko, laser10, tambov68, kalina08, DeTorquemada, terminal, r0mka, Plesha, Прагматик.
Тип релиза: BDRip 1080p
Контейнер: MKV
Видео: MPEG-4 AVC, 1920x1038 (16:9), 23.976 fps, 17.8 Mbps
Аудио: Russian AC3, 5.1 ch, 48KHz, 640 Kbps - Омикрон
Аудио 2: Russian AC3, 5.1 ch, 48KHz, 640 Kbps - Д. Есарев
Аудио 3: English DTS 5.1 ch, 48 kHz, 24-bit, 1509 kbps
Формат субтитров: softsub (SRT)
Навигация по главам: есть

Сэмпл Другие фильмы BBC в HD

MediaInfo

General
Unique ID : 196587146801604848872818667593832716989 (0x93E54EA94AAB7963BC18683AB225DABD)
Complete name : F:\Enchanted.Kingdom.2013.x264.BDRip.(1080p).ExKinoRay.mkv
Format : Matroska
Format version : Version 2
File size : 12.5 GiB
Duration : 1h 27mn
Overall bit rate : 20.6 Mbps
Movie name : Заколдованное королевство.2013.Rip by: ollan
Encoded date : UTC 2014-12-28 09:53:52
Writing application : mkvmerge v5.6.0 ('Kenya Kane') built on May 27 2012 16:44:04
Writing library : libebml v1.2.3 + libmatroska v1.3.0
Video
ID : 1
Format : AVC
Format/Info : Advanced Video Codec
Format profile : High@L4.1
Format settings, CABAC : Yes
Format settings, ReFrames : 4 frames
Codec ID : V_MPEG4/ISO/AVC
Duration : 1h 27mn
Bit rate : 17.8 Mbps
Width : 1 920 pixels
Height : 1 038 pixels
Display aspect ratio : 1.85:1
Frame rate mode : Constant
Frame rate : 23.976 fps
Color space : YUV
Chroma subsampling : 4:2:0
Bit depth : 8 bits
Scan type : Progressive
Bits/(Pixel*Frame) : 0.372
Stream size : 10.6 GiB (84%)
Writing library : x264 core 125 r2200 999b753
Encoding settings : cabac=1 / ref=4 / deblock=1:-3:-3 / analyse=0x3:0x133 / me=umh / subme=11 / psy=1 / psy_rd=1.00:0.10 / mixed_ref=1 / me_range=32 / chroma_me=1 / trellis=2 / 8x8dct=1 / cqm=0 / deadzone=21,11 / fast_pskip=0 / chroma_qp_offset=-3 / threads=12 / lookahead_threads=2 / sliced_threads=0 / nr=0 / decimate=0 / interlaced=0 / bluray_compat=0 / constrained_intra=0 / bframes=9 / b_pyramid=2 / b_adapt=2 / b_bias=0 / direct=3 / weightb=1 / open_gop=0 / weightp=2 / keyint=240 / keyint_min=23 / scenecut=40 / intra_refresh=0 / rc=2pass / mbtree=0 / bitrate=17777 / ratetol=1.0 / qcomp=0.60 / qpmin=0 / qpmax=69 / qpstep=4 / cplxblur=20.0 / qblur=0.5 / ip_ratio=1.40 / pb_ratio=1.30 / aq=1:1.00
Language : English
Default : Yes
Forced : No
Audio #1
ID : 2
Format : AC-3
Format/Info : Audio Coding 3
Mode extension : CM (complete main)
Format settings, Endianness : Big
Codec ID : A_AC3
Duration : 1h 27mn
Bit rate mode : Constant
Bit rate : 640 Kbps
Channel(s) : 6 channels
Channel positions : Front: L C R, Side: L R, LFE
Sampling rate : 48.0 KHz
Bit depth : 16 bits
Compression mode : Lossy
Stream size : 400 MiB (3%)
Title : «Омикрон»
Language : Russian
Default : Yes
Forced : No
Audio #2
ID : 3
Format : AC-3
Format/Info : Audio Coding 3
Mode extension : CM (complete main)
Format settings, Endianness : Big
Codec ID : A_AC3
Duration : 1h 27mn
Bit rate mode : Constant
Bit rate : 640 Kbps
Channel(s) : 6 channels
Channel positions : Front: L C R, Side: L R, LFE
Sampling rate : 48.0 KHz
Bit depth : 16 bits
Compression mode : Lossy
Stream size : 400 MiB (3%)
Title : Д.Есарев
Language : Russian
Default : No
Forced : No
Audio #3
ID : 4
Format : DTS
Format/Info : Digital Theater Systems
Mode : 16
Format settings, Endianness : Big
Codec ID : A_DTS
Duration : 1h 27mn
Bit rate mode : Constant
Bit rate : 1 510 Kbps
Channel(s) : 6 channels
Channel positions : Front: L C R, Side: L R, LFE
Sampling rate : 48.0 KHz
Bit depth : 24 bits
Compression mode : Lossy
Stream size : 943 MiB (7%)
Language : English
Default : No
Forced : No
Text #1
ID : 5
Format : UTF-8
Codec ID : S_TEXT/UTF8
Codec ID/Info : UTF-8 Plain Text
Title : Full
Language : Russian
Default : No
Forced : No
Text #2
ID : 6
Format : UTF-8
Codec ID : S_TEXT/UTF8
Codec ID/Info : UTF-8 Plain Text
Title : Full
Language : English
Default : No
Forced : No
Menu
00:00:00.000 : en:Chapter 01
00:00:39.038 : en:Chapter 02
00:03:10.190 : en:Chapter 03
00:07:20.148 : en:Chapter 04
00:11:32.858 : en:Chapter 05
00:14:10.933 : en:Chapter 06
00:20:00.282 : en:Chapter 07
00:20:54.253 : en:Chapter 08
00:23:13.392 : en:Chapter 09
00:25:41.998 : en:Chapter 10
00:28:11.356 : en:Chapter 11
00:30:39.838 : en:Chapter 12
00:32:09.010 : en:Chapter 13
00:36:59.592 : en:Chapter 14
00:39:20.191 : en:Chapter 15
00:43:40.284 : en:Chapter 16
00:46:38.796 : en:Chapter 17
00:48:13.891 : en:Chapter 18
00:52:50.876 : en:Chapter 19
00:56:49.364 : en:Chapter 20
00:57:45.462 : en:Chapter 21
01:01:04.661 : en:Chapter 22
01:05:03.399 : en:Chapter 23
01:10:12.958 : en:Chapter 24
01:13:20.729 : en:Chapter 25
01:16:34.423 : en:Chapter 26
01:21:15.871 : en:Chapter 27
01:24:40.575 : en:Chapter 28

Скриншоты

[Профиль] [ЛС]
Кто просматривает тему:

Форум Тема Автор Размер
R.G.TorrentFilm Video Заколдованное Королевство / Enchanted Kingdom (Патрик Моррис / Patrick Morris, Нил Найтингейл / Neil Nightingale) [2013 г., Документальный, HDRip] VО Один 777 691 MB
Документальные HD Заколдованное королевство / Enchanted Kingdom (Патрик Моррис, Нил Найтингейл / Patrick Morris, Neil Nightingale) [2013, документальный, Blu-ray disc (custom)] TorrentFilm 41.32 GB
Документальные HD Заколдованное королевство 3D / BBC. Enchanted Kingdom 3D (Патрик Моррис, Нил Найтингейл / Patrick Morris, Neil Nightingale) [2013, документальный, видовая документалистика, BDRip 720p] TorrentFilm 5.82 GB
Отечественные мультфильмы Заколдованный мальчик (Александра Снежко-Блоцкая, Владимир Полковников) [1955 г., мультфильм, сказка, семейный, DVDRip-AVC] КП, реставрация reversefile 822 MB
Мультфильмы СССР Чиполлино, Заколдованный мальчик (1955, 1961) DVDRip Russian Mafia 1.45 GB
Мультфильмы СССР Чиполлино, Заколдованный мальчик (1955, 1961) DVDRip от New-Team Белочка 893 MB
Мультфильмы СССР Чиполлино, Заколдованный мальчик (1955, 1961) DVDRip-AVC от New-Team Белочка 1.46 GB
Другие симуляторы Эльфийские легенды 2: Заколдованное дерево (2016) PC достали все 789 MB
Показать сообщения:    

Текущее время: Сегодня 13:59

Часовой пояс: GMT



Вы не можете начинать темы
Вы не можете отвечать на сообщения
Вы не можете редактировать свои сообщения
Вы не можете удалять свои сообщения
Вы не можете голосовать в опросах
Вы не можете прикреплять файлы к сообщениям
Вы не можете скачивать файлы