Закованные / Shackled (Дэйв МакКейб / Dave McCabe) [2010, Ирландия, ужасы, триллер, SATRip] MVO

 
Автор Сообщение

TorrentFilm ®

Пол:

Стаж: 2 года

Сообщений: 7741



Награды: Нет

Торрент-статистика

Создавать темы 13-Янв-2015 00:00

[Цитировать]

Закованные / Shackled
Страна: Ирландия
Жанр: ужасы, триллер
Год выпуска: 2010
Продолжительность: 01:17:24
Перевод: Профессиональный (многоголосый закадровый)
Cубтитры: нет
Режиссер: Дэйв МакКейб / Dave McCabe
В ролях: Эндрю Блэйки, Джон Бойлэн, Донна Брэдли, Вивьенн Коннолли
Описание: После того, как Брайан Макдональд был найден убитым на пляже, его сестра Сара с другом детства Михаилом пытаются разгадать ужасающие тайны, окружавшие покойного последние несколько недель жизни. Узнав о брате то, чего она никак не ожидала, Сара вынуждена копаться в своем прошлом и выяснять, почему они так воспитывались, кем является их настоящая мать, и что с ней стало...
Доп. информация: Фильм записал alenavova
Релиз-первоисходник
Сэмпл: https://yadi.sk/i/PXq9kCJkdtsLZ
Качество видео: SATRip by alenavova
Формат видео: AVI
Видео: 704x304 (2.32:1), 25 fps, XviD build 50 ~2198 kbps avg, 0.41 bit/pixel
Аудио: 48 kHz, AC3 Dolby Digital, 2/0 (L,R) ch, ~192 kbps

MediaInfo

Закованные - Shackled [by alenavova].avi
Format : AVI
Format/Info : Audio Video Interleave
File size : 1.30 GiB
Duration : 1h 17mn
Overall bit rate : 2 400 Kbps
Movie name : Закованные - Shackled [by alenavova]
Director : Rip by alenavova
Writing application : VirtualDubMod 1.5.10.3 | www.virtualdub-fr.org || (build 2550/release)
Copyright : Edich2
Comment : RuTracker.org
Video
ID : 0
Format : MPEG-4 Visual
Format profile : Advanced Simple@L5
Format settings, BVOP : 1
Format settings, QPel : No
Format settings, GMC : No warppoints
Format settings, Matrix : Default (MPEG)
Codec ID : XVID
Codec ID/Hint : XviD
Duration : 1h 17mn
Bit rate : 2 198 Kbps
Width : 704 pixels
Height : 304 pixels
Display aspect ratio : 2.35:1
Frame rate : 25.000 fps
Color space : YUV
Chroma subsampling : 4:2:0
Bit depth : 8 bits
Scan type : Progressive
Compression mode : Lossy
Bits/(Pixel*Frame) : 0.411
Stream size : 1.19 GiB (92%)
Writing library : XviD 1.2.1 (UTC 2008-12-04)
Audio
ID : 1
Format : AC-3
Format/Info : Audio Coding 3
Mode extension : CM (complete main)
Format settings, Endianness : Big
Codec ID : 2000
Duration : 1h 17mn
Bit rate mode : Constant
Bit rate : 192 Kbps
Channel(s) : 2 channels
Channel positions : Front: L R
Sampling rate : 48.0 KHz
Bit depth : 16 bits
Compression mode : Lossy
Stream size : 106 MiB (8%)
Alignment : Split accross interleaves
Interleave, duration : 40 ms (1.00 video frame)
Interleave, preload duration : 500 ms

Скриншоты


[Профиль] [ЛС]

Создавать темы 06-Авг-2015 22:48 (спустя 6 месяцев 24 дня)

Топик был перенесен из форума Фильмы до 2014 года в форум Фильмы до 2012 года
sergej644
 

Создавать темы 12-Июн-2016 07:54 (спустя 1 год 4 месяца)

Топик был перенесен из форума Фильмы 2011 года в форум Фильмы 2010 года
Russian Mafia
 
Кто просматривает тему:

Форум Тема Автор Размер
Фантастика, фэнтези Дмитрий Казаков - Собрание произведений [117 книг] (1999-2014) FB2 Garik014 100 MB
Фантастика, фэнтези Дмитрий Казаков | Коллекционер (2015) [FB2] достали все 1 MB
Фантастика и фэнтези Казаков Дмитрий - Пограничье 7. Коллекционер (2016) MP3 Swager 548 MB
Фильмы 2015 года Немецкий страх / German Angst (Йорг Буттгерайт / Jörg Buttgereit, Михал Козаковски / Michal Kosakowski, Андреас Маршалл / Andreas Marschall) [2015, Германия, Ужасы, фэнтези, боевик, детектив,... TorrentFilm 1.45 GB
Фильмы (DVD 5/9) Покровские ворота (Михаил Козаков) [1982 г., Комедия, Blu-ray > DVD5 + DVD9 (Custom)] reversefile 10.12 GB
Фильмы (HD Rips | 720p, 1080p) Покровские ворота (Михаил Козаков) [1982, СССР, Комедия, BDRip 1080p] TorrentFilm 12.97 GB
Фильмы (HD Rips | 720p, 1080p) Покровские ворота (Михаил Козаков) [1982, СССР, комедия, Blu-ray disc 1080p] TorrentFilm 29.84 GB
Фильмы (HD Rips | 720p, 1080p) Покровские ворота (Михаил Козаков) [1982, СССР, мюзикл, драма, мелодрама, комедия, BDRip 720p] TorrentFilm 6.67 GB
Показать сообщения:    

Текущее время: Сегодня 17:41

Часовой пояс: GMT



Вы не можете начинать темы
Вы не можете отвечать на сообщения
Вы не можете редактировать свои сообщения
Вы не можете удалять свои сообщения
Вы не можете голосовать в опросах
Вы не можете прикреплять файлы к сообщениям
Вы не можете скачивать файлы