Заклятие 2 / The Conjuring 2 (2016) BDRip-AVC | Лицензия

 
Автор Сообщение

Razboynik ®

Пол:

Стаж: 11 месяцев 3 дня

Сообщений: 40



Награды: Нет

Торрент-статистика

Создавать темы 19-Окт-2016 12:45

[Цитировать]

Информация о фильме
Название: Заклятие 2
Оригинальное название: The Conjuring 2
Год выхода: 2016
Жанр: Ужасы
Режиссер: Джеймс Ван
В ролях: Патрик Уилсон, Вера Фармига, Мэдисон Вульф, Фрэнсис О’Коннор, Лорен Эспозито, Саймон МакБерни, Мария Дойл Кеннеди, Саймон Делани
О фильме:
Супругов занесло в город Энфильд. На этот раз экстрасенсам довелось столкнуться с могущественным демоном, претендующим на звание владыки здешних мест. Скептически настроенные горожане начали подозревать друг друга в происшествиях, в их сердцах поселилась вражда и ненависть.

Страна: США
Студия: Atomic Monster, Evergreen Media, New Line Cinema
Продолжительность: 02:13:52
Перевод: Дублированный | Лицензия
Файл
Качество: BDRip (AVC)
Видео: MPEG-4 AVC, 1951 Кбит/с, 1024x428
Аудио: Русский, английский (AC3, 6 ch, 448 Кбит/с)
Субтитры: Русские (полные, форсированные), английские (full, SDH)

МИ

General
Unique ID : 226873429673451623862151061075251506291 (0xAAAE3BB1A50BF5ADA9167C3D96D92C73)
Complete name : E:NataliaRelizy09.2016The.Conjuring.2.2016.D.BDRip.AVC.ExKinoRay.mkv
Format : Matroska
Format version : Version 2
File size : 2.66 GiB
Duration : 2 h 13 min
Overall bit rate : 2 847 kb/s
Movie name : Conjuring 2 2016 from ExKinoRay
Encoded date : UTC 2016-09-29 21:32:19
Writing application : mkvmerge v7.6.0 ('Garden of Dreams') 32bit built on Feb 11 2015 00:18:47
Writing library : libebml v1.3.1 + libmatroska v1.4.2
Video
ID : 1
Format : AVC
Format/Info : Advanced Video Codec
Format profile : High@L4.1
Format settings, CABAC : Yes
Format settings, ReFrames : 12 frames
Codec ID : V_MPEG4/ISO/AVC
Duration : 2 h 13 min
Bit rate : 1 951 kb/s
Width : 1 024 pixels
Height : 428 pixels
Display aspect ratio : 2.40:1
Frame rate mode : Constant
Frame rate : 23.976 (23976/1000) FPS
Color space : YUV
Chroma subsampling : 4:2:0
Bit depth : 8 bits
Scan type : Progressive
Bits/(Pixel*Frame) : 0.186
Stream size : 1.77 GiB (67%)
Title : Enigma
Writing library : x264 core 144 r2525 40bb568
Encoding settings : cabac=1 / ref=12 / deblock=1:-3:-3 / analyse=0x3:0x113 / me=umh / subme=10 / psy=1 / psy_rd=1.05:0.15 / mixed_ref=1 / me_range=32 / chroma_me=1 / trellis=2 / 8x8dct=1 / cqm=0 / deadzone=21,11 / fast_pskip=0 / chroma_qp_offset=-3 / threads=12 / lookahead_threads=2 / sliced_threads=0 / nr=0 / decimate=0 / interlaced=0 / bluray_compat=0 / constrained_intra=0 / bframes=9 / b_pyramid=2 / b_adapt=2 / b_bias=0 / direct=3 / weightb=1 / open_gop=0 / weightp=2 / keyint=240 / keyint_min=23 / scenecut=40 / intra_refresh=0 / rc_lookahead=40 / rc=2pass / mbtree=0 / bitrate=1951 / ratetol=1.0 / qcomp=0.65 / qpmin=0 / qpmax=51 / qpstep=4 / cplxblur=20.0 / qblur=0.5 / vbv_maxrate=50000 / vbv_bufsize=62500 / nal_hrd=none / filler=0 / ip_ratio=1.40 / pb_ratio=1.30 / aq=1:0.80
Language : English
Default : Yes
Forced : No
Color range : Limited
Color primaries : BT.709
Transfer characteristics : BT.709
Matrix coefficients : BT.709
Audio #1
ID : 2
Format : AC-3
Format/Info : Audio Coding 3
Mode extension : CM (complete main)
Format settings, Endianness : Big
Codec ID : A_AC3
Duration : 2 h 13 min
Bit rate mode : Constant
Bit rate : 448 kb/s
Channel(s) : 6 channels
Channel positions : Front: L C R, Side: L R, LFE
Sampling rate : 48.0 kHz
Frame rate : 31.250 FPS (1536 spf)
Compression mode : Lossy
Stream size : 429 MiB (16%)
Title : Dub Blu-ray CEE
Language : Russian
Default : Yes
Forced : No
Audio #2
ID : 3
Format : AC-3
Format/Info : Audio Coding 3
Mode extension : CM (complete main)
Format settings, Endianness : Big
Codec ID : A_AC3
Duration : 2 h 13 min
Bit rate mode : Constant
Bit rate : 448 kb/s
Channel(s) : 6 channels
Channel positions : Front: L C R, Side: L R, LFE
Sampling rate : 48.0 kHz
Frame rate : 31.250 FPS (1536 spf)
Compression mode : Lossy
Stream size : 429 MiB (16%)
Language : English
Default : No
Forced : No
Text #1
ID : 4
Format : UTF-8
Codec ID : S_TEXT/UTF8
Codec ID/Info : UTF-8 Plain Text
Title : Forced
Language : Russian
Default : Yes
Forced : No
Text #2
ID : 5
Format : UTF-8
Codec ID : S_TEXT/UTF8
Codec ID/Info : UTF-8 Plain Text
Title : Full
Language : Russian
Default : No
Forced : No
Text #3
ID : 6
Format : UTF-8
Codec ID : S_TEXT/UTF8
Codec ID/Info : UTF-8 Plain Text
Title : Full
Language : English
Default : No
Forced : No
Text #4
ID : 7
Format : UTF-8
Codec ID : S_TEXT/UTF8
Codec ID/Info : UTF-8 Plain Text
Title : SDH
Language : English
Default : No
Forced : No
Menu
00:00:00.000 : en:00:00:00.000
00:08:24.671 : en:00:08:24.671
00:18:40.703 : en:00:18:40.703
00:28:34.212 : en:00:28:34.212
00:40:01.399 : en:00:40:01.399
00:48:46.841 : en:00:48:46.841
01:02:14.314 : en:01:02:14.314
01:09:29.665 : en:01:09:29.665
01:21:55.869 : en:01:21:55.869
01:29:26.486 : en:01:29:26.486
01:38:53.469 : en:01:38:53.469
01:48:15.364 : en:01:48:15.364
02:03:10.508 : en:02:03:10.508
02:07:36.816 : en:02:07:36.816
[Профиль] [ЛС]
Показать сообщения:    

Текущее время: Сегодня 00:53

Часовой пояс: GMT



Вы не можете начинать темы
Вы не можете отвечать на сообщения
Вы не можете редактировать свои сообщения
Вы не можете удалять свои сообщения
Вы не можете голосовать в опросах
Вы не можете прикреплять файлы к сообщениям
Вы не можете скачивать файлы