Заключенный Р / R (Тобиас Линдхольм / Tobias Lindholm, Микаэль Ноэр / Michael Noer) [2010, Дания, драма, DVDRip-AVC] MVO (Новый Диск) + original + subtitles (eng, nor, swe)

 
Автор Сообщение

TorrentFilm ®

Пол:

Стаж: 2 года

Сообщений: 7741



Награды: Нет

Торрент-статистика

Создавать темы 22-Фев-2015 00:01

[Цитировать]

Заключенный Р / R- Год выпуска: 2010
Страна: Дания
Студии: Nordisk Film
Жанр: драма
Продолжительность: 01:36:11-Перевод: Новый Диск по заказу компании "Кино без границ"
Озвучение: Профессиональное (многоголосое, закадровое)
Субтитры: английские, норвежские, шведские
Оригинальная дорожка: датская-Режиссёры: Тобиас Линдхольм, Микаэль Ноэр / Tobias Lindholm, Michael Noer
Сценарий: Тобиас Линдхольм и Микаэль Ноэр-В ролях: Пилу Асбек, Дулфи Аль-Джабури, Роланд Мёллер, Якоб Гредстед, Омар Шаргави, Ким Винтер, Ларс Йенсен, Джонни Нильсен, Суне Нёргор, Клаус Поульсен, Хельмут Кристенсен, Али Нехзед, Сёрен Томсен, Лайла Андерссон-Жестокая драма, антропологическое изучение жизни в датской тюрьме – дебютная работа дуэта датских режиссеров Тобиаса Линдхольма («Заложники») и Микаэля Ноэра («Северо-Запад»).
В тюрьму, известную на всю Данию своими жесткими условиями, прибывает заключенный по имени Руне – R. Здесь он будет отбывать срок за насилие. Тюрьма – это параллельный мир, со своими правилами, понятиями о чести и обязанностями. Руне помещают в отсек к самым агрессивным зэкам, где он сразу же становится изгоем. Здесь ему предстоит найти свое место, научиться перемещаться и бороться за выживание. В стремлении стать «своим среди чужих» он затевает авантюру: трафик наркотиков из отсека в отсек. Но, казалось бы, налаженное дело дает сбой…
(с) «Кино без границ»-Награды:
Bodil-2011 — «Фильм года», «Актер года» (Пилу Асбек);
Гётеборгский фестиваль-2010 — Dragon Award, Приз зрительских симпатий;
Robert – «Фильм года», «Актер года», «Сценарий года», «Режиссер года», «Лучшая операторская работа» (Магнус Норденхоф Йёнк), «Лучший звук» (Мортен Грин), «Лучшие визуальные эффекты» (Мортен Якобсен, Томас Фольдберг), «Лучший монтаж» (Адам Нильсен)-Линдхольм: Мощным источником вдохновения стала история моего друга детства. Мы познакомились с Роландом Мёллером, который играет персонажа по прозвищу «Каменотёс» и который когда-то сидел именно в этой тюрьме. Он был нашим зеркалом правды на протяжении всего процесса — от задумки сценария и до окончания съемок. Каждую деталь мы обсуждали с ним и другими заключенными. Съемки проходили на реальной лестничной площадке, в реальном туалете и т. д. Мы оставались верны правде. Ким (Винтур, охранник) многие годы проработал в тюрьме. Он никогда не касался дверных ручек, он выбивал двери ногами. «Я не притрагивался к дверям, ведь заключенные обычно справляли на них нужду». Поэтому и не касался. Реализм нашего фильма составляет практически 100%. Мы ничего не добавляли от себя, но снимали так, как есть.
Из интервью с Тобиасом Линдхольмом и Микаэлем Ноэром.- -Качество: DVDRip-AVC (ripped by sombre soul)
Формат: MKV
Кодек видео: H.264
Кодек звука: AC3
Видео: H.264, 720x572@1024x572, 25 fps, 1989 kbps, 0.193 bit/pixel
Аудио 1: AC3, 48 kHz, 6 ch, 448 kbps (Russian) «Новый Диск»
Аудио 2: AC3, 48 kHz, 6 ch, 448 kbps (Danish)
Субтитры: русские (sofsub), норвежские, шведские (.idx)

MediaInfo

General
Unique ID                      : 216165696603541069027976284398025549074 (0xA29FFFB19B3D0911A2156A3825BDA512)
Complete name                  : D:\CINEMA\DENMARK\Заключенный R (R) (2010).mkv
Format                         : Matroska
Format version                 : Version 4 / Version 2
File size                      : 1.94 GiB
Duration                       : 1h 36mn
Overall bit rate               : 2 889 Kbps
Encoded date                   : UTC 2015-02-17 06:42:00
Writing application            : mkvmerge v7.5.0 ('Glass Culture') 64bit built on Jan  4 2015 16:48:44
Writing library                : Lavf55.12.0
DURATION                       : 01:32:28.396000000
NUMBER_OF_FRAMES               : 506
NUMBER_OF_BYTES                : 811524
_STATISTICS_WRITING_APP        : mkvmerge v7.5.0 ('Glass Culture') 64bit built on Jan  4 2015 16:48:44
_STATISTICS_WRITING_DATE_UTC   : 2015-02-17 06:42:00
_STATISTICS_TAGS               : BPS DURATION NUMBER_OF_FRAMES NUMBER_OF_BYTES
Video
ID                             : 1
Format                         : AVC
Format/Info                    : Advanced Video Codec
Format profile                 : High@L4.1
Format settings, CABAC         : Yes
Format settings, ReFrames      : 9 frames
Codec ID                       : V_MPEG4/ISO/AVC
Duration                       : 1h 36mn
Bit rate                       : 1 989 Kbps
Width                          : 720 pixels
Height                         : 572 pixels
Display aspect ratio           : 16:9
Frame rate mode                : Constant
Frame rate                     : 25.000 fps
Color space                    : YUV
Chroma subsampling             : 4:2:0
Bit depth                      : 8 bits
Scan type                      : Progressive
Bits/(Pixel*Frame)             : 0.193
Stream size                    : 1.30 GiB (67%)
Writing library                : x264 core 142 r2479 dd79a61
Encoding settings              : cabac=1 / ref=9 / deblock=1:-3:-3 / analyse=0x3:0x133 / me=umh / subme=9 / psy=1 / psy_rd=1.00:0.00 / mixed_ref=1 / me_range=24 / chroma_me=1 / trellis=2 / 8x8dct=1 / cqm=0 / deadzone=21,11 / fast_pskip=0 / chroma_qp_offset=-2 / threads=6 / lookahead_threads=1 / sliced_threads=0 / nr=0 / decimate=1 / interlaced=0 / bluray_compat=0 / constrained_intra=0 / bframes=6 / b_pyramid=2 / b_adapt=2 / b_bias=0 / direct=3 / weightb=1 / open_gop=0 / weightp=2 / keyint=250 / keyint_min=25 / scenecut=40 / intra_refresh=0 / rc_lookahead=60 / rc=abr / mbtree=1 / bitrate=1989 / ratetol=1.0 / qcomp=0.60 / qpmin=0 / qpmax=69 / qpstep=4 / vbv_maxrate=62500 / vbv_bufsize=78125 / nal_hrd=none / filler=0 / ip_ratio=1.40 / aq=2:1.00
Default                        : Yes
Forced                         : No
Color primaries                : BT.601 PAL
Transfer characteristics       : BT.709
Matrix coefficients            : BT.601
Color range                    : Limited
DURATION                       : 01:36:10.760000000
NUMBER_OF_FRAMES               : 144269
NUMBER_OF_BYTES                : 1434839092
_STATISTICS_WRITING_APP        : mkvmerge v7.5.0 ('Glass Culture') 64bit built on Jan  4 2015 16:48:44
_STATISTICS_WRITING_DATE_UTC   : 2015-02-17 06:42:00
_STATISTICS_TAGS               : BPS DURATION NUMBER_OF_FRAMES NUMBER_OF_BYTES
Audio #1
ID                             : 2
Format                         : AC-3
Format/Info                    : Audio Coding 3
Mode extension                 : CM (complete main)
Format settings, Endianness    : Big
Codec ID                       : A_AC3
Duration                       : 1h 36mn
Bit rate mode                  : Constant
Bit rate                       : 448 Kbps
Channel(s)                     : 6 channels
Channel positions              : Front: L C R, Side: L R, LFE
Sampling rate                  : 48.0 KHz
Bit depth                      : 16 bits
Compression mode               : Lossy
Delay relative to video        : -80ms
Stream size                    : 308 MiB (16%)
Title                          : Новый Диск (лицензия)
Language                       : Danish
Default                        : No
Forced                         : No
DURATION                       : 01:36:08.640000000
NUMBER_OF_FRAMES               : 180270
NUMBER_OF_BYTES                : 323043840
_STATISTICS_WRITING_APP        : mkvmerge v7.5.0 ('Glass Culture') 64bit built on Jan  4 2015 16:48:44
_STATISTICS_WRITING_DATE_UTC   : 2015-02-17 06:42:00
_STATISTICS_TAGS               : BPS DURATION NUMBER_OF_FRAMES NUMBER_OF_BYTES
Audio #2
ID                             : 3
Format                         : AC-3
Format/Info                    : Audio Coding 3
Mode extension                 : CM (complete main)
Format settings, Endianness    : Big
Codec ID                       : A_AC3
Duration                       : 1h 36mn
Bit rate mode                  : Constant
Bit rate                       : 448 Kbps
Channel(s)                     : 6 channels
Channel positions              : Front: L C R, Side: L R, LFE
Sampling rate                  : 48.0 KHz
Bit depth                      : 16 bits
Compression mode               : Lossy
Stream size                    : 308 MiB (16%)
Title                          : Surround
Language                       : Danish
Default                        : Yes
Forced                         : No
Text #1
ID                             : 4
Format                         : UTF-8
Codec ID                       : S_TEXT/UTF8
Codec ID/Info                  : UTF-8 Plain Text
Language                       : English
Default                        : Yes
Forced                         : No
Text #2
ID                             : 5
Format                         : VobSub
Muxing mode                    : zlib
Codec ID                       : S_VOBSUB
Codec ID/Info                  : The same subtitle format used on DVDs
Language                       : Swedish
Default                        : No
Forced                         : No
Text #3
ID                             : 6
Format                         : VobSub
Muxing mode                    : zlib
Codec ID                       : S_VOBSUB
Codec ID/Info                  : The same subtitle format used on DVDs
Language                       : Norwegian
Default                        : No
Forced                         : No
Menu
00:00:00.000                   : :Chapter 1
00:08:07.080                   : :Chapter 2
00:18:13.720                   : :Chapter 3
00:24:56.720                   : :Chapter 4
00:32:20.400                   : :Chapter 5
00:39:24.960                   : :Chapter 6
00:48:24.600                   : :Chapter 7
00:56:30.960                   : :Chapter 8
01:09:05.960                   : :Chapter 9
01:19:22.680                   : :Chapter 10
01:26:10.760                   : :Chapter 11
01:30:52.520                   : :Chapter 12
01:36:08.720                   : :Chapter 13

Скриншот с названием

Скриншоты


[Профиль] [ЛС]

Создавать темы 06-Авг-2015 22:42 (спустя 5 месяцев 12 дней)

Топик был перенесен из форума Фильмы до 2014 года в форум Фильмы до 2012 года
sergej644
 

Создавать темы 12-Июн-2016 07:54 (спустя 1 год 3 месяца)

Топик был перенесен из форума Фильмы 2011 года в форум Фильмы 2010 года
Russian Mafia
 
Показать сообщения:    

Текущее время: Сегодня 04:21

Часовой пояс: GMT



Вы не можете начинать темы
Вы не можете отвечать на сообщения
Вы не можете редактировать свои сообщения
Вы не можете удалять свои сообщения
Вы не можете голосовать в опросах
Вы не можете прикреплять файлы к сообщениям
Вы не можете скачивать файлы