Загадочный пассажир / Поезд / Pociag (1959) BDRemux 1080p | D

 
Author Message

BOSS ®

Gender:

Longevity: 4 years 8 months

Posts: 14114

Location: ODESSA



: 22 ()

Mega Seeder 4 (1) Top Seeder 4 (1) Top Releaser 4 (1)
Торрент-статистика

Post 10-Oct-2018 17:33

[Quote]

Информация о фильме
Название: Загадочный пассажир / Поезд
Оригинальное название: Pociag
Год выхода: 1959
Жанр: Драма, Триллер, Детектив
Режиссер: Ежи Кавалерович /Jerzy Kawalerowicz
В ролях: Леон Немчик /Leon Niemczyk/, Люцина Винницка /Lucyna Winnicka/, Збигнев Цибульский /Zbigniew Cybulski/, Тереза Шмигелювна /Teresa Szmigielowna/, Хелена Дабровска /Helena Dabrowska/
О фильме:
Один из ведущих режиссеров "Польской школы" 1950-х и 1960-х годов снял великолепный психологический триллер, все действие которого, как можно догодаться по названию, происходит в поезде. Женщина купила с рук у мужчины билет на 16-е место, а в купе ей уступил свою нижнюю полку очень неразговорчивый человек в темных очках. Еще до отхода поезда пассажиры обсуждали газетную статью о муже, убившем свою жену и сбежавшем. Ночью поезд останвливают, и полицейские задерживают неразговорчивого мужчину в темных очках с 16-го места, а женщина, которой он уступил место, проходит в общий вагон к давно преследующему ее любовнику и видит мужчину, продавшего ей с рук билет...

Страна: Польша
Продолжительность: 01:37:10
Перевод: Профессиональный (полное дублирование)
Файл
Качество: BDRemux
Формат: MKV
Видео: MPEG-4 AVC Video 28623 kbps 1080p / 23,976 fps / 16:9 / High Profile 4.1
Аудио: Dolby Digital Audio Russian 2.0 / 48 kHz / 192 kbps
Аудио: DTS-HD Master Audio Polish 5.1 / 48 kHz / 1810 kbps / 16-bit (DTS Core: 5.1 / 48 kHz / 1509 kbps / 16-bit)
Субтитры: русские, английские
ЦитатаКто-то писал:за дубляж спасибо клубу Феникс

MI

General
Unique ID : 211733137878734355963904749314139439847 (0x9F4A51ACFF3226BAAD1A0A4D1B1B42E7)
Complete name : J:Pociag.1959.1080p.Bluray.AVC.Remux.mkv
Format : Matroska
File size : 20.8 GiB
Duration : 1h 37mn
Overall bit rate : 30.6 Mbps
Movie name : Pociag.1959.1080p.Bluray.AVC.Remux
Encoded date : UTC 2011-07-05 01:16:56
Writing application : mkvmerge v4.8.0 ('I Got The...') сборка от May 24 2011 03:12:58
Writing library : libebml v1.2.0 + libmatroska v1.1.0
Video
ID : 1
Format : AVC
Format/Info : Advanced Video Codec
Format profile : High@L4.1
Format settings, CABAC : Yes
Format settings, ReFrames : 4 frames
Codec ID : V_MPEG4/ISO/AVC
Duration : 1h 37mn
Bit rate mode : Variable
Bit rate : 28.3 Mbps
Maximum bit rate : 40.0 Mbps
Width : 1 920 pixels
Height : 1 080 pixels
Display aspect ratio : 16:9
Frame rate : 23.976 fps
Standard : NTSC
Color space : YUV
Chroma subsampling : 4:2:0
Bit depth : 8 bits
Scan type : Progressive
Bits/(Pixel*Frame) : 0.569
Stream size : 19.2 GiB (92%)
Title : uralmix
Color primaries : BT.709-5, BT.1361, IEC 61966-2-4, SMPTE RP177
Transfer characteristics : BT.709-5, BT.1361
Matrix coefficients : BT.709-5, BT.1361, IEC 61966-2-4 709, SMPTE RP177
Audio #1
ID : 2
Format : AC-3
Format/Info : Audio Coding 3
Mode extension : CM (complete main)
Codec ID : A_AC3
Duration : 1h 37mn
Bit rate mode : Constant
Bit rate : 192 Kbps
Channel(s) : 2 channels
Channel positions : Front: L R
Sampling rate : 48.0 KHz
Bit depth : 16 bits
Compression mode : Lossy
Stream size : 133 MiB (1%)
Title : дубляж
Language : Russian
Audio #2
ID : 3
Format : DTS
Format/Info : Digital Theater Systems
Format profile : MA / Core
Codec ID : A_DTS
Duration : 1h 37mn
Bit rate mode : Variable
Bit rate : 1 561 Kbps / 1 510 Kbps
Channel(s) : 6 channels
Channel positions : Front: L C R, Side: L R, LFE
Sampling rate : 48.0 KHz
Bit depth : 16 bits
Compression mode : Lossless / Lossy
Language : Polish
Text #1
ID : 4
Format : UTF-8
Codec ID : S_TEXT/UTF8
Codec ID/Info : UTF-8 Plain Text
Language : Russian
Text #2
ID : 5
Format : UTF-8
Codec ID : S_TEXT/UTF8
Codec ID/Info : UTF-8 Plain Text
Language : English
Menu
00:00:00.000 : en:00:00:00.000
00:06:51.995 : en:00:06:51.995
00:18:08.546 : en:00:18:08.546
00:33:23.376 : en:00:33:23.376
00:43:57.635 : en:00:43:57.635
00:52:07.374 : en:00:52:07.374
01:04:49.385 : en:01:04:49.385
01:18:02.303 : en:01:18:02.303
01:31:15.345 : en:01:31:15.345

Скриншоты

[Profile] [PM]
Кто просматривает тему:

Forum Topic Author Size
365 365: Людовик ХIV, загадка форта Сент Себастьян / Louis XIV et l'énigme du fort Saint Sébastien (Лоран Мармоль / Laurent Marmol, Фредерик Лоссиньоль / Frédéric Lossig... skorpionN 748 MB
BBC BBC: Загадка римских катакомб / The Catacomb Mystery (Пол Олдинг) [2013 г., Документальный, научно-познавательный, история, HDTVRip 720p] skorpionN 1.8 GB
BBC BBC: Эти загадочные животные / Weird Nature [серии 1-6 из 6](John Downer) [2002 г., Документальный, фауна, HDTVRip-AVC 720p] skorpionN 5.32 GB
Документальные HD Discovery: Загадочные животные острова Джао / The Secret Creatures of Jao / 7 серий из 7 [2009, Документальный, познавательный, HDTV 1080i] TorrentFilm 10.05 GB
Документальные HD Discovery: Загадочные животные острова Джао / The Secret Creatures of Jao / 7 серий из 7 [2009, Документальный, познавательный, HDTVRip 720p] TorrentFilm 4.84 GB
Nat Geo Wild Nat Geo Wild: Загадочные обезьяны Шангри-Ла / Mystery Monkeys of Shangri-La (Jacky Poon) [2015 г., Документальный, научно-познавательный, HDTVRip 720p] skorpionN 1.58 GB
National Geographic NG: Первый император: секреты китайской гробницы / China's Megatomb Revealed (Hugh Ballantyne) [2016 г., Документально-игровой, история, археология, исследования, мифы, загадки, тайны, HDTVRip... skorpionN 2.57 GB
National Geographic NG: Разгадка египетских тайн / Egypt unwrapped [серии 1,2,4,5,8 из 8] (Дуг Ховарт / Doug Howard, Дэвид Ли / David Lee) [2008 г., Документальный, история, археология, исследования, мифы, заг... skorpionN 5.57 GB
Display posts from previous:    

The time now is: Today 18:00

All times are GMT



You cannot post new topics in this forum
You cannot reply to topics in this forum
You cannot edit your posts in this forum
You cannot delete your posts in this forum
You cannot vote in polls in this forum
You cannot attach files in this forum
You cannot download files in this forum