Загадочные авиакатастрофы Второй Мировой войны (1-2 серия из 6) / WW II: Air Crash Detectives (Джеймс Фаулер / James Fowler) [2014, Документальный, авиация, историческое исследование, HDTVRip 720p]

 
Автор Сообщение

TorrentFilm ®

Пол:

Стаж: 1 год 11 месяцев

Сообщений: 7741



Награды: Нет

Торрент-статистика

Создавать темы 26-Фев-2015 00:01

[Цитировать]

Загадочные авиакатастрофы Второй Мировой войны (1-2 серия из 6) / WW II: Air Crash Detectives
Дата/Год выпуска: 2014
Страна: Великобритания, WWII ACI Productionc Ltd
Жанр: Документальный, авиация, историческое исследование
Продолжительность: 2 х ~ 00:44:00
Перевод: Студийный (одноголосый закадровый)
Режиссер: Джеймс Фаулер / James Fowler
Описание: Сериал рассказывает о многочисленных случаях гибели пилотов во время Второй мировой войны, но не от рук врага, а в результате авиационных катастроф или несчастных случаев при обучении. Все они были чьими-то отцами, братьями и сыновьями, отправляли письма любимым и мечтали о возвращении домой. К сожалению, на фоне миллионов жертв их имена были преданы забвению. Однако существуют люди, которые не позволят записать имена забытых героев в конец длинного списка погибших.В этом сериале исследователи авиакатастроф отправляются на места крушения самолетов времен Второй мировой войны, чтобы попытаться объяснить причины гибели пилотов.
Доп. информация: HDTVRip by alf62

качество: HDTVRip 720p
формат: MKV
Видео: MPEG-4 AVC, ~ 2300 Кбит/с, 1280x720
Аудио: AC3, 2 ch, 192 Кбит/с

Список выпусков/серий

1. Крушение В-25 на вершине горы Шарп-Топ /Lost And Confused - Sharp Top Mountain B25 Crash
В этой серии мы узнаем, что же на самом деле произошло холодной февральской ночью 1943 года, когда бомбардировщик B-25 Митчелл с пятью пилотами-стажерами на борту разбился о скалу в штате Вирджиния.
2. Последний полет Сикорского / Sikorski's Last Flight
В этой серии исследователи авиакатастроф попытаются пролить свет на одну из нерешенных загадок Второй мировой войны и выяснить причины гибели польского генерала Владислава Сикорского.
3. Death On The Great Plains: Naper
4. Conspiracy or Confusion? The Duke Of Kent
5. Australia's Worst Air Crash: Baker's Creek
6. Death In The Moonlight: Turwestone Wellington Collision

MediaInfo

WW.II.Air.Crash.Detectives.2014.720p.hdtv.x264.alf62\WW.II.Air.Crash.Detectives.(2.serija.iz.6).Poslednij.polet.Sikorskogo.2014.720p.hdtv.x264.alf62.mkvФормат : MatroskaВерсия формата : Version 4 / Version 2Размер файла : 802 МбайтПродолжительность : 44 м.Общий поток : 2543 Кбит/секДата кодирования : UTC 2015-02-17 23:35:36Программа кодирования : mkvmerge v6.6.0 ('The Edge Of The In Between') built on Dec 1 2013 17:55:00Библиотека кодирования : libebml v1.3.0 + libmatroska v1.4.1
ВидеоИдентификатор : 1Формат : AVCФормат/Информация : Advanced Video CodecПрофиль формата : High@L4.1Параметр CABAC формата : ДаПараметр ReFrames формата : 5 кадровИдентификатор кодека : V_MPEG4/ISO/AVCПродолжительность : 44 м.Битрейт : 2300 Кбит/секШирина : 1280 пикселейВысота : 720 пикселейСоотношение сторон : 16:9Режим частоты кадров : ПостоянныйЧастота кадров : 25,000 кадров/секЦветовое пространство : YUVСубдискретизация насыщенности : 4:2:0Битовая глубина : 8 битТип развёртки : ПрогрессивнаяБит/(Пиксели*Кадры) : 0.100Размер потока : 726 Мбайт (90%)Библиотека кодирования : x264 core 144 r2525 40bb568Настройки программы : cabac=1 / ref=5 / deblock=1:0:0 / analyse=0x3:0x113 / me=umh / subme=8 / psy=1 / psy_rd=1.00:0.00 / mixed_ref=1 / me_range=16 / chroma_me=1 / trellis=1 / 8x8dct=1 / cqm=0 / deadzone=21,11 / fast_pskip=1 / chroma_qp_offset=-2 / threads=12 / lookahead_threads=2 / sliced_threads=0 / nr=0 / decimate=1 / interlaced=0 / bluray_compat=0 / constrained_intra=0 / bframes=3 / b_pyramid=2 / b_adapt=2 / b_bias=0 / direct=3 / weightb=1 / open_gop=0 / weightp=2 / keyint=250 / keyint_min=25 / scenecut=40 / intra_refresh=0 / rc_lookahead=50 / rc=crf / mbtree=1 / crf=20.0 / qcomp=0.60 / qpmin=0 / qpmax=69 / qpstep=4 / ip_ratio=1.40 / aq=1:1.00Default : ДаForced : Нет
АудиоИдентификатор : 2Формат : AC-3Формат/Информация : Audio Coding 3Расширение режима : CM (complete main)Параметр Endianness формата : BigИдентификатор кодека : A_AC3Продолжительность : 44 м.Вид битрейта : ПостоянныйБитрейт : 192 Кбит/секКаналы : 2 каналаРасположение каналов : Front: L RЧастота : 48,0 КГцБитовая глубина : 16 битМетод сжатия : С потерямиЗадержка видео : 120 мс.Размер потока : 60,6 Мбайт (8%)Default : ДаForced : Нет
Внимание! Раздача ведётся путём добавления новых серий

скрытый текст

Внимание! Раздача ведётся путём добавления новых серий; при каждом добавлении создаётся новый торрент. Чтобы начать докачку новой серии, пользователям необходимо сделать следующее:
• Остановить скачивание.
• Удалить старый торрент у себя из клиента (старые серии удалять не надо).
• Скачать новый торрент и запустить его у себя в клиенте вместо старого, при этом указать клиенту путь в старую папку куда и должно происходить скачивание новых серий.
Ваш клиент при этом должен произвести хеширование (проверку) старой папки (если не производит сам - помогите ему сделать это), и будет докачивать только те серии которых у вас ещё нет. Старые серии при этом не удаляются, а продолжают раздаваться!
Eсли вы уже удалили старые серии, то предотвратить повторную закачку старых серий можно, отжав галочку в соответсвующих местах при запуске нового торрента. По возможности, желательно не удалять старые серии как можно дольше чтобы релизёр не столько продолжал раздавать старые серии, а смог сконцентрироваться на новых.

Скриншоты


[Профиль] [ЛС]
Кто просматривает тему:

Форум Тема Автор Размер
365 365: Людовик ХIV, загадка форта Сент Себастьян / Louis XIV et l'énigme du fort Saint Sébastien (Лоран Мармоль / Laurent Marmol, Фредерик Лоссиньоль / Frédéric Lossig... skorpionN 748 MB
BBC BBC: Загадка римских катакомб / The Catacomb Mystery (Пол Олдинг) [2013 г., Документальный, научно-познавательный, история, HDTVRip 720p] skorpionN 1.8 GB
Документальные HD Discovery: Загадочные животные острова Джао / The Secret Creatures of Jao / 7 серий из 7 [2009, Документальный, познавательный, HDTV 1080i] TorrentFilm 10.05 GB
Документальные HD Discovery: Загадочные животные острова Джао / The Secret Creatures of Jao / 7 серий из 7 [2009, Документальный, познавательный, HDTVRip 720p] TorrentFilm 4.84 GB
Nat Geo Wild Nat Geo Wild: Загадочные обезьяны Шангри-Ла / Mystery Monkeys of Shangri-La (Jacky Poon) [2015 г., Документальный, научно-познавательный, HDTVRip 720p] skorpionN 1.58 GB
National Geographic NG: Первый император: секреты китайской гробницы / China's Megatomb Revealed (Hugh Ballantyne) [2016 г., Документально-игровой, история, археология, исследования, мифы, загадки, тайны, HDTVRip... skorpionN 2.57 GB
PBS PBS: Тайны Мертвых. Загадка серебряного фараона / Secrets of the Dead. The Silver Pharaoh [сезон 10 эпизод 1 ] (Энди Вебб / Andy Webb) [2010 г., Документальный, научно-познавательный, и... skorpionN 1.31 GB
Travel Travel: Музейные тайны / Mysteries at the Museum [сезон 4 серии 1-12 из 12] (Nicholas Zeig-Owens, Remy Weber) [2013 г., Документально-постановочный, история, археология, путешествия, исследован... skorpionN 15 GB
Показать сообщения:    

Текущее время: Сегодня 22:37

Часовой пояс: GMT



Вы не можете начинать темы
Вы не можете отвечать на сообщения
Вы не можете редактировать свои сообщения
Вы не можете удалять свои сообщения
Вы не можете голосовать в опросах
Вы не можете прикреплять файлы к сообщениям
Вы не можете скачивать файлы