Загадки пришельцев (Сезон 1: Серии 1-6) / Alien Mysteries (Ларри МакЛин / Larry A. McLean) [2013, Документальный, псевдо-фантастика, SATRip]

 
Автор Сообщение

reversefile ®

Пол:

Стаж: 4 года 5 месяцев

Сообщений: 842

Откуда: ReverseFile.org



Награды: Нет

Торрент-статистика

Создавать темы 24-Июл-2014 17:55

[Цитировать]

Загадки пришельцев (Сезон 1: Серии 1-6) / Alien Mysteries
Год выпуска: 2013
Страна: Канада
Жанр: Документальный, псевдо-фантастика
Продолжительность: 6х~00:43:00
Перевод: Профессиональный (многоголосый закадровый)
Русские субтитры: нет
Режиссер: Ларри МакЛин / Larry A. McLean
Описание: Преодолев измерение времени и пространства с помощью технологий недоступных человечеству быть может они уже за нами наблюдают. Может они чего-то ждут ?! Может они уже здесь ?! Существует много мнений о факте появления НЛО на земле. Кто-то видел огненный шар, а кто-то говорит, что это все выдумка. Но все же большинство людей склоняются к той точке зрения, что инопланетные создания действительно существуют и неоднократно замечались в бездонных пространствах нашей атмосферы. Вы увидите некоторые факты существования НЛО и услышите рассказы очевидцев, описывающие невероятные явления и случаи.

качество: SATRip
формат: AVI
Видео: Xvid, 720x480, 25fps, ~1519kbps
Аудио: MP3, 44100Hz, stereo 113kbps

Список серий

1. Корина Сэйблс
В июле 1991 женщина увидела над своим домом в Британской Колумбии огромный космический корабль. Затем она исчезла на 45 минут, но потом не смогла вспомнить, что с ней произошло.
2. Огни над Стивенвиллем
Однажды сидя у костра в окрестностях Стивенвилля в Техасе один летчик заметил на небе объект, который летел со скоростью, нарушающей известные законы физики.
3. Округ Бакс
Когда однажды среди ночи в 2008 году Дениз Мертер, жительница округа Бакс, проснулась от бешеного лая своей собаки, она подумала, что в дом проник кто-то посторонний...
4. Семья Рид
Мэтью Рид ехал по плохо освещенной дороге на окраине Индианаполиса; последнее что он помнит, перед тем, как у него заглох двигатель - это погоня за оранжевым пятном света.
5. Лес Риндлшэм
В рождественскую ночь 1980 года американские летчики Джим Пеннистон и Джон Барроус отправляются в лес Риндлшэм, на предполагаемое место аварийной посадки самолета.
6. Кексбургский НЛО
Вечером 9 декабря 1965 года, когда солнце спускалось над тихим городком Кексбург в Пенсильвании, Билл Бьюлбош заметил яркий огненный шар, несущийся по небу.

MediaInfo

Video
ID : 0
Format : MPEG-4 Visual
Format profile : Advanced Simple@L5
Format settings, BVOP : 1
Format settings, QPel : No
Format settings, GMC : No warppoints
Format settings, Matrix : Default (H.263)
Codec ID : XVID
Codec ID/Hint : XviD
Duration : 43mn 40s
Bit rate : 1 520 Kbps
Width : 720 pixels
Height : 480 pixels
Display aspect ratio : 3:2
Frame rate : 25.000 fps
Standard : NTSC
Color space : YUV
Chroma subsampling : 4:2:0
Bit depth : 8 bits
Scan type : Progressive
Compression mode : Lossy
Bits/(Pixel*Frame) : 0.176
Stream size : 475 MiB (92%)
Writing library : XviD 1.2.1 (UTC 2008-12-04)
Audio
ID : 1
Format : MPEG Audio
Format version : Version 1
Format profile : Layer 3
Mode : Joint stereo
Mode extension : MS Stereo
Codec ID : 55
Codec ID/Hint : MP3
Duration : 43mn 40s
Bit rate mode : Variable
Bit rate : 114 Kbps
Nominal bit rate : 128 Kbps
Channel(s) : 2 channels
Sampling rate : 44.1 KHz
Compression mode : Lossy
Stream size : 35.5 MiB (7%)
Alignment : Aligned on interleaves
Interleave, duration : 26 ms (0.65 video frame)
Interleave, preload duration : 481 ms
Writing library : LAME3.99
Encoding settings : -m j -V 4 -q 2 -lowpass 17 --abr 128
[Профиль] [ЛС]
Кто просматривает тему:

Форум Тема Автор Размер
365 365: Людовик ХIV, загадка форта Сент Себастьян / Louis XIV et l'énigme du fort Saint Sébastien (Лоран Мармоль / Laurent Marmol, Фредерик Лоссиньоль / Frédéric Lossig... skorpionN 748 MB
BBC BBC: Загадка римских катакомб / The Catacomb Mystery (Пол Олдинг) [2013 г., Документальный, научно-познавательный, история, HDTVRip 720p] skorpionN 1.8 GB
Документальные HD Discovery: Загадочные животные острова Джао / The Secret Creatures of Jao / 7 серий из 7 [2009, Документальный, познавательный, HDTV 1080i] TorrentFilm 10.05 GB
Документальные HD Discovery: Загадочные животные острова Джао / The Secret Creatures of Jao / 7 серий из 7 [2009, Документальный, познавательный, HDTVRip 720p] TorrentFilm 4.84 GB
Nat Geo Wild Nat Geo Wild: Загадочные обезьяны Шангри-Ла / Mystery Monkeys of Shangri-La (Jacky Poon) [2015 г., Документальный, научно-познавательный, HDTVRip 720p] skorpionN 1.58 GB
National Geographic NG: Первый император: секреты китайской гробницы / China's Megatomb Revealed (Hugh Ballantyne) [2016 г., Документально-игровой, история, археология, исследования, мифы, загадки, тайны, HDTVRip... skorpionN 2.57 GB
PBS PBS: Тайны Мертвых. Загадка серебряного фараона / Secrets of the Dead. The Silver Pharaoh [сезон 10 эпизод 1 ] (Энди Вебб / Andy Webb) [2010 г., Документальный, научно-познавательный, и... skorpionN 1.31 GB
Travel Travel: Музейные тайны / Mysteries at the Museum [сезон 4 серии 1-12 из 12] (Nicholas Zeig-Owens, Remy Weber) [2013 г., Документально-постановочный, история, археология, путешествия, исследован... skorpionN 15 GB
Показать сообщения:    

Текущее время: Сегодня 02:16

Часовой пояс: GMT



Вы не можете начинать темы
Вы не можете отвечать на сообщения
Вы не можете редактировать свои сообщения
Вы не можете удалять свои сообщения
Вы не можете голосовать в опросах
Вы не можете прикреплять файлы к сообщениям
Вы не можете скачивать файлы