Загадки и тайны семьи Медичи / The Medici Files (Юдит Фёлкер) [2013, Документально-постановочный, история, генеалогия, HDTVRip 720p]

 
Автор Сообщение

TorrentFilm ®

Пол:

Стаж: 2 года

Сообщений: 7741



Награды: Нет

Торрент-статистика

Создавать темы 02-Янв-2015 00:00

[Цитировать]

Загадки и тайны семьи Медичи / The Medici Files
Год выпуска: 2013
Страна: Германия, Франция
Студия: GebruederBeetz Filmproduktion (GBF), ZDF, ARTE
Жанр: Документально-постановочный, история, генеалогия
Продолжительность: 2 x ~ 00:52:00
Режиссер: Юдит Фёлкер
Описание: Флоренция. История города тесно переплетается с судьбой семьи Медичи. Будучи патронами художников и архитекторов они определили облик города вплоть до наших дней. Церковь Сан-Лоренцо это фамильный склеп Медичей. Звезд династии погребали в роскошных могилах, прочих хоронили анонимно. Именно здесь семья продемонстрировала своё могущество и вкус к искусствам. Они изменили основные понятия об устройстве мира. Но за изящными надгробиями скрывается множество тайн. Осенью 2012 года была открыта последняя их 49 гробниц знаменитой семьи. Церковь позволила исследовать тела перед тем, как их предадут вечному покою. Изучение гробниц Медичей разрешило много загадок и поставило новые вопросы.
Тип релиза: HDTVRip 720p
Контейнер: MKV
Видео: MPEG-4 AVC, ~ 4600 Кбит/с, 1280x720
Аудио: AC3, 2 ch, 192 Кбит/с
Сэмпл: Скачать

MediaInfo

GeneralUnique ID : 235769786384494300476839506559258266656 (0xB15F9BF1C6CE7AC3A9E1A48BDAA30C20)Complete name : M:\Торренты\Документальные\Загадки и тайны семьи Медичи\1. Загадки и тайны семьи Медичи_720p.mkvFormat : MatroskaFormat version : Version 4 / Version 2File size : 1.76 GiBDuration : 52mn 29sOverall bit rate : 4 793 KbpsEncoded date : UTC 2014-12-25 14:13:17Writing application : mkvmerge v6.6.0 ('The Edge Of The In Between') built on Dec 1 2013 17:55:00Writing library : libebml v1.3.0 + libmatroska v1.4.1
VideoID : 1Format : AVCFormat/Info : Advanced Video CodecFormat profile : High@L4.1Format settings, CABAC : YesFormat settings, ReFrames : 9 framesCodec ID : V_MPEG4/ISO/AVCDuration : 52mn 29sBit rate : 4 600 KbpsWidth : 1 280 pixelsHeight : 720 pixelsDisplay aspect ratio : 16:9Frame rate mode : ConstantFrame rate : 25.000 fpsColor space : YUVChroma subsampling : 4:2:0Bit depth : 8 bitsScan type : ProgressiveBits/(Pixel*Frame) : 0.200Stream size : 1.65 GiB (94%)Writing library : x264 core 142 r2431 ac76440Encoding settings : cabac=1 / ref=9 / deblock=1:0:0 / analyse=0x3:0x133 / me=umh / subme=9 / psy=1 / psy_rd=1.00:0.10 / mixed_ref=1 / me_range=32 / chroma_me=1 / trellis=2 / 8x8dct=1 / cqm=0 / deadzone=21,11 / fast_pskip=1 / chroma_qp_offset=-3 / threads=6 / lookahead_threads=1 / sliced_threads=0 / nr=0 / decimate=0 / interlaced=0 / bluray_compat=0 / constrained_intra=0 / bframes=12 / b_pyramid=2 / b_adapt=2 / b_bias=0 / direct=3 / weightb=1 / open_gop=0 / weightp=2 / keyint=250 / keyint_min=23 / scenecut=40 / intra_refresh=0 / rc=2pass / mbtree=0 / bitrate=4600 / ratetol=1.0 / qcomp=0.60 / qpmin=0 / qpmax=69 / qpstep=4 / cplxblur=20.0 / qblur=0.5 / ip_ratio=1.40 / pb_ratio=1.30 / aq=1:1.00Language : EnglishDefault : YesForced : No
AudioID : 2Format : AC-3Format/Info : Audio Coding 3Mode extension : CM (complete main)Format settings, Endianness : BigCodec ID : A_AC3Duration : 52mn 29sBit rate mode : ConstantBit rate : 192 KbpsChannel(s) : 2 channelsChannel positions : Front: L RSampling rate : 48.0 KHzBit depth : 16 bitsCompression mode : LossyStream size : 72.1 MiB (4%)Default : YesForced : No

Скриншоты

[Профиль] [ЛС]
Кто просматривает тему:

Форум Тема Автор Размер
365 365: Людовик ХIV, загадка форта Сент Себастьян / Louis XIV et l'énigme du fort Saint Sébastien (Лоран Мармоль / Laurent Marmol, Фредерик Лоссиньоль / Frédéric Lossig... skorpionN 748 MB
BBC BBC: Загадка римских катакомб / The Catacomb Mystery (Пол Олдинг) [2013 г., Документальный, научно-познавательный, история, HDTVRip 720p] skorpionN 1.8 GB
Документальные HD Discovery: Загадочные животные острова Джао / The Secret Creatures of Jao / 7 серий из 7 [2009, Документальный, познавательный, HDTV 1080i] TorrentFilm 10.05 GB
Документальные HD Discovery: Загадочные животные острова Джао / The Secret Creatures of Jao / 7 серий из 7 [2009, Документальный, познавательный, HDTVRip 720p] TorrentFilm 4.84 GB
Nat Geo Wild Nat Geo Wild: Загадочные обезьяны Шангри-Ла / Mystery Monkeys of Shangri-La (Jacky Poon) [2015 г., Документальный, научно-познавательный, HDTVRip 720p] skorpionN 1.58 GB
National Geographic NG: Первый император: секреты китайской гробницы / China's Megatomb Revealed (Hugh Ballantyne) [2016 г., Документально-игровой, история, археология, исследования, мифы, загадки, тайны, HDTVRip... skorpionN 2.57 GB
PBS PBS: Тайны Мертвых. Загадка серебряного фараона / Secrets of the Dead. The Silver Pharaoh [сезон 10 эпизод 1 ] (Энди Вебб / Andy Webb) [2010 г., Документальный, научно-познавательный, и... skorpionN 1.31 GB
Travel Travel: Музейные тайны / Mysteries at the Museum [сезон 4 серии 1-12 из 12] (Nicholas Zeig-Owens, Remy Weber) [2013 г., Документально-постановочный, история, археология, путешествия, исследован... skorpionN 15 GB
Показать сообщения:    

Текущее время: Сегодня 08:52

Часовой пояс: GMT



Вы не можете начинать темы
Вы не можете отвечать на сообщения
Вы не можете редактировать свои сообщения
Вы не можете удалять свои сообщения
Вы не можете голосовать в опросах
Вы не можете прикреплять файлы к сообщениям
Вы не можете скачивать файлы