Загадка Шекспира / Das Shakespeare Ratsel (The Shakespeare Enigma) (Айк Шмитц / Eike Schmitz) [2011 г., Документально-игровой, история, исследования, тайны, SATRip]

 
Автор Сообщение

skorpionN ®

Пол:

Стаж: 1 год 8 месяцев

Сообщений: 591



Награды: 4 (Подробнее)

Mega Seeder 1 (Количество: 1) Top Releaser 2 (Количество: 1) Mega Seeder 3 (Количество: 1)
Торрент-статистика

Создавать темы 15-Окт-2016 12:17

[Цитировать]

Загадка Шекспира / Das Shakespeare Ratsel (The Shakespeare Enigma)
Год выпуска: 2011
Страна: Германия, ZDF Enterprises, Atlantis Film
Жанр: Документально-игровой, история, исследования, тайны
Продолжительность: 00:52:09
Перевод: Профессиональный (одноголосый), Видеофильм ТВ
Режиссер: Айк Шмитц / Eike Schmitz
В ролях: Bastian Conrad, Roland Emmerich, Gerd Heidenreich
Описание: Фильм посвящен исследованию "шекспировского вопроса", а именно – кем на самом деле был Уильям Шекспир? Существует распространенная теория о том, что Шекспир – лишь псевдоним, за которым скрывался истинный автор знаменитых пьес. Согласно этой теории, одним из кандидатов на авторство творений Шекспира является Кристофер Марло, английский поэт и драматург елизаветинской эпохи. Первые пьесы Шекспира были поставлены уже после внезапной смерти Марло в 1593 году, что, на первый взгляд, исключает Марло из списка вероятных авторов. Однако в фильме "Загадка Шекспира" биографы и историки предлагают новую версию событий: Кристофер Марло имитировал собственную смерть, дабы избежать преследований со стороны Елизаветы I, а затем посвятил свою жизнь литературе, используя псевдоним. Фильм изобилует красочными реконструкциями и погружает зрителя в золотой век елизаветинской эпохи.
Качество: SATRip
Формат: AVI
Видео кодек: XviD
Аудио кодек: AC3
Видео: 720x400 25.00 fps 1800 kbps
Аудио: AC3 2ch, 48kHz, 192 kbps

Скриншоты


MediaInfo:

Format : AVI
Format/Info : Audio Video Interleave
File size : 745 MiB
Duration : 52 min 8 s
Overall bit rate : 1 998 kb/s
Writing application : TMPGEnc Video Mastering Works 5 Version. 5.0.6.38
Writing library : TMPGEnc Video Mastering Works 5 Version. 5.0.6.38
Video
ID : 0
Format : MPEG-4 Visual
Format profile : Advanced Simple@L5
Format settings, BVOP : 2
Format settings, QPel : No
Format settings, GMC : No warppoints
Format settings, Matrix : Default (H.263)
Muxing mode : Packed bitstream
Codec ID : XVID
Codec ID/Hint : XviD
Duration : 52 min 8 s
Bit rate : 1 798 kb/s
Width : 720 pixels
Height : 400 pixels
Display aspect ratio : 16:9
Frame rate : 25.000 FPS
Color space : YUV
Chroma subsampling : 4:2:0
Bit depth : 8 bits
Scan type : Progressive
Compression mode : Lossy
Bits/(Pixel*Frame) : 0.250
Stream size : 671 MiB (90%)
Writing library : XviD 73
Audio
ID : 1
Format : AC-3
Format/Info : Audio Coding 3
Mode extension : CM (complete main)
Format settings, Endianness : Big
Codec ID : 2000
Duration : 52 min 8 s
Bit rate mode : Constant
Bit rate : 192 kb/s
Channel(s) : 2 channels
Channel positions : Front: L R
Sampling rate : 48.0 kHz
Frame rate : 31.250 FPS (1536 spf)
Compression mode : Lossy
Stream size : 71.6 MiB (10%)
Alignment : Aligned on interleaves
Interleave, duration : 240 ms (6.00 video frames)
Interleave, preload duration : 224 ms
[Профиль] [ЛС]

ARI71

Стаж: 3 месяца 26 дней

Сообщений: 62



Награды: Нет

Торрент-статистика

Создавать темы 15-Окт-2016 14:18 (спустя 2 часа)

[Цитировать]

Большое спасибо за релиз!
[Профиль] [ЛС]
Кто просматривает тему:

Форум Тема Автор Размер
365 365: Людовик ХIV, загадка форта Сент Себастьян / Louis XIV et l'énigme du fort Saint Sébastien (Лоран Мармоль / Laurent Marmol, Фредерик Лоссиньоль / Frédéric Lossig... skorpionN 748 MB
BBC BBC: Загадка римских катакомб / The Catacomb Mystery (Пол Олдинг) [2013 г., Документальный, научно-познавательный, история, HDTVRip 720p] skorpionN 1.8 GB
Документальные HD Discovery: Загадочные животные острова Джао / The Secret Creatures of Jao / 7 серий из 7 [2009, Документальный, познавательный, HDTV 1080i] TorrentFilm 10.05 GB
Документальные HD Discovery: Загадочные животные острова Джао / The Secret Creatures of Jao / 7 серий из 7 [2009, Документальный, познавательный, HDTVRip 720p] TorrentFilm 4.84 GB
Nat Geo Wild Nat Geo Wild: Загадочные обезьяны Шангри-Ла / Mystery Monkeys of Shangri-La (Jacky Poon) [2015 г., Документальный, научно-познавательный, HDTVRip 720p] skorpionN 1.58 GB
National Geographic NG: Первый император: секреты китайской гробницы / China's Megatomb Revealed (Hugh Ballantyne) [2016 г., Документально-игровой, история, археология, исследования, мифы, загадки, тайны, HDTVRip... skorpionN 2.57 GB
PBS PBS: Тайны Мертвых. Загадка серебряного фараона / Secrets of the Dead. The Silver Pharaoh [сезон 10 эпизод 1 ] (Энди Вебб / Andy Webb) [2010 г., Документальный, научно-познавательный, и... skorpionN 1.31 GB
Travel Travel: Музейные тайны / Mysteries at the Museum [сезон 4 серии 1-12 из 12] (Nicholas Zeig-Owens, Remy Weber) [2013 г., Документально-постановочный, история, археология, путешествия, исследован... skorpionN 15 GB
Показать сообщения:    

Текущее время: Сегодня 15:43

Часовой пояс: GMT



Вы не можете начинать темы
Вы не можете отвечать на сообщения
Вы не можете редактировать свои сообщения
Вы не можете удалять свои сообщения
Вы не можете голосовать в опросах
Вы не можете прикреплять файлы к сообщениям
Вы не можете скачивать файлы