Загадка иберийской рыси / Mystery of the Lynx (Клаус Файхтенбергер / Klaus Feichtenberger) [2012, Документальный, HDTVRip 720p]

 
Автор Сообщение

TorrentFilm ®

Пол:

Стаж: 2 года

Сообщений: 7741



Награды: Нет

Торрент-статистика

Создавать темы 11-Июл-2015 00:10

[Цитировать]

Загадка иберийской рыси / Mystery of the Lynx
Год выпуска: 2012
Страна: Австрия
Студия: Terra Mater Factual Studios
Жанр: Документальный
Канал:
Продолжительность: 00:43:45
Перевод: Профессиональный (дублированный)
Доп. инфо о переводе: Студия "Велес" (Станислав Войнич)
Режиссер: Клаус Файхтенбергер / Klaus Feichtenberger
Описание: Последний приют самой редкой кошки планеты. Две части охраняемого заповедника на юге Испании служат одной цели: они дают пристанище диким животным и растениям, некогда процветавшим, а теперь практически исчезнувшим. Иберийская рысь находится на гране вымирания и отчаянно борется за выживание с небольшой помощью друзей.

Тип релиза: HDTVRip 720p
Контейнер: MKV
Видео: H.264, 1280x720 (16:9), 5200 Kbps, 25 fps, 0,226 bit\pixel
Аудио RUS: AC3, 192 Кбит/с, 48 kHz, 2 ch
Аудио ENG: AC3, 192 Кбит/с, 48 kHz, 2 ch

Исходник: HDTV1080i спасибо LeXa 84

x264 log

avs [info]: 1280x720p 1:1 @ 25/1 fps (cfr)x264 [info]: using SAR=1/1x264 [info]: using cpu capabilities: MMX2 SSE2Fast SSSE3 SSE4.2 AVXx264 [info]: profile Main, level 4.1x264 [info]: frame I:506 Avg QP:17.44 size:220499x264 [info]: frame P:21847 Avg QP:21.59 size: 52666x264 [info]: frame B:43272 Avg QP:25.26 size: 10460x264 [info]: consecutive B-frames: 9.5% 8.7% 13.4% 49.8% 6.9% 10.0% 1.0% 0.5% 0.1%x264 [info]: mb I I16..4: 10.0% 0.0% 90.0%x264 [info]: mb P I16..4: 12.7% 0.0% 0.0% P16..4: 77.7% 0.0% 0.0% 0.0% 0.0% skip: 9.6%x264 [info]: mb B I16..4: 2.0% 0.0% 0.0% B16..8: 25.5% 0.0% 0.0% direct:13.8% skip:58.7% L0:26.1% L1:43.3% BI:30.6%x264 [info]: final ratefactor: 20.52x264 [info]: direct mvs spatial:99.8% temporal:0.2%x264 [info]: coded y,uvDC,uvAC intra: 57.0% 72.8% 30.2% inter: 27.9% 19.8% 1.1%x264 [info]: i16 v,h,dc,p: 30% 32% 24% 14%x264 [info]: i4 v,h,dc,ddl,ddr,vr,hd,vl,hu: 19% 18% 10% 8% 9% 9% 9% 9% 10%x264 [info]: i8c dc,h,v,p: 46% 24% 21% 8%x264 [info]: Weighted P-Frames: Y:2.9% UV:1.2%x264 [info]: kb/s:5226.04
x264 [total]: encoded 65625 frames, 28.29 fps, 5226.04 kb/s

MediaInfo

[pre]General
Unique ID : 227252857155554394057783844765143526932 (0xAAF74EE9C1B52E9C92E824893AF1EE14)
Complete name : D:\Видео\Флора и фауна\Mystery of the Lynx HDTVRip-720p.2012.mkv
Format : Matroska
Format version : Version 4 / Version 2
File size : 1.71 GiB
Duration : 43mn 45s
Overall bit rate : 5 586 Kbps
Encoded date : UTC 2015-07-02 13:09:36
Writing application : mkvmerge v7.9.0 ('Birds') 64bit
Writing library : libebml v1.3.1 + libmatroska v1.4.2
DURATION : 00:43:44.976000000
NUMBER_OF_FRAMES : 109374
NUMBER_OF_BYTES : 62999424
_STATISTICS_WRITING_APP : mkvmerge v7.9.0 ('Birds') 64bit
_STATISTICS_WRITING_DATE_UTC : 2015-07-02 13:09:36
_STATISTICS_TAGS : BPS DURATION NUMBER_OF_FRAMES NUMBER_OF_BYTES
Video
ID : 1
Format : AVC
Format/Info : Advanced Video Codec
Format profile : High@L4.1
Format settings, CABAC : Yes
Format settings, ReFrames : 6 frames
Codec ID : V_MPEG4/ISO/AVC
Duration : 43mn 45s
Bit rate : 5 200 Kbps
Width : 1 280 pixels
Height : 720 pixels
Display aspect ratio : 16:9
Frame rate mode : Constant
Frame rate : 25.000 fps
Color space : YUV
Chroma subsampling : 4:2:0
Bit depth : 8 bits
Scan type : Progressive
Bits/(Pixel*Frame) : 0.226
Stream size : 1.56 GiB (91%)
Writing library : x264 core 146 r2538 121396c
Encoding settings : cabac=1 / ref=6 / deblock=1:0:0 / analyse=0x3:0x113 / me=umh / subme=9 / psy=1 / psy_rd=1.05:0.20 / mixed_ref=1 / me_range=32 / chroma_me=1 / trellis=2 / 8x8dct=1 / cqm=0 / deadzone=21,11 / fast_pskip=1 / chroma_qp_offset=-3 / threads=6 / lookahead_threads=1 / sliced_threads=0 / nr=0 / decimate=1 / interlaced=0 / bluray_compat=0 / constrained_intra=0 / bframes=8 / b_pyramid=2 / b_adapt=2 / b_bias=0 / direct=3 / weightb=1 / open_gop=0 / weightp=2 / keyint=250 / keyint_min=25 / scenecut=40 / intra_refresh=0 / rc_lookahead=60 / rc=2pass / mbtree=1 / bitrate=5200 / ratetol=1.0 / qcomp=0.60 / qpmin=0 / qpmax=69 / qpstep=4 / cplxblur=20.0 / qblur=0.5 / vbv_maxrate=14000 / vbv_bufsize=14000 / nal_hrd=none / filler=0 / ip_ratio=1.40 / aq=1:1.00
Default : Yes
Forced : No
Audio #1
ID : 2
Format : MPEG Audio
Format version : Version 1
Format profile : Layer 2
Codec ID : A_MPEG/L2
Codec ID/Hint : MP2
Duration : 43mn 45s
Bit rate mode : Constant
Bit rate : 192 Kbps
Channel(s) : 2 channels
Sampling rate : 48.0 KHz
Compression mode : Lossy
Stream size : 60.1 MiB (3%)
Language : Russian
Default : Yes
Forced : No
Audio #2
ID : 3
Format : MPEG Audio
Format version : Version 1
Format profile : Layer 2
Codec ID : A_MPEG/L2
Codec ID/Hint : MP2
Duration : 43mn 45s
Bit rate mode : Constant
Bit rate : 192 Kbps
Channel(s) : 2 channels
Sampling rate : 48.0 KHz
Compression mode : Lossy
Stream size : 60.1 MiB (3%)
Language : English
Default : No
Forced : No

Скриншоты

[Профиль] [ЛС]
Кто просматривает тему:

Форум Тема Автор Размер
365 365: Людовик ХIV, загадка форта Сент Себастьян / Louis XIV et l'énigme du fort Saint Sébastien (Лоран Мармоль / Laurent Marmol, Фредерик Лоссиньоль / Frédéric Lossig... skorpionN 748 MB
BBC BBC: Загадка римских катакомб / The Catacomb Mystery (Пол Олдинг) [2013 г., Документальный, научно-познавательный, история, HDTVRip 720p] skorpionN 1.8 GB
Документальные HD Discovery: Загадочные животные острова Джао / The Secret Creatures of Jao / 7 серий из 7 [2009, Документальный, познавательный, HDTV 1080i] TorrentFilm 10.05 GB
Документальные HD Discovery: Загадочные животные острова Джао / The Secret Creatures of Jao / 7 серий из 7 [2009, Документальный, познавательный, HDTVRip 720p] TorrentFilm 4.84 GB
Nat Geo Wild Nat Geo Wild: Загадочные обезьяны Шангри-Ла / Mystery Monkeys of Shangri-La (Jacky Poon) [2015 г., Документальный, научно-познавательный, HDTVRip 720p] skorpionN 1.58 GB
National Geographic NG: Первый император: секреты китайской гробницы / China's Megatomb Revealed (Hugh Ballantyne) [2016 г., Документально-игровой, история, археология, исследования, мифы, загадки, тайны, HDTVRip... skorpionN 2.57 GB
PBS PBS: Тайны Мертвых. Загадка серебряного фараона / Secrets of the Dead. The Silver Pharaoh [сезон 10 эпизод 1 ] (Энди Вебб / Andy Webb) [2010 г., Документальный, научно-познавательный, и... skorpionN 1.31 GB
Travel Travel: Музейные тайны / Mysteries at the Museum [сезон 4 серии 1-12 из 12] (Nicholas Zeig-Owens, Remy Weber) [2013 г., Документально-постановочный, история, археология, путешествия, исследован... skorpionN 15 GB
Показать сообщения:    

Текущее время: Сегодня 12:11

Часовой пояс: GMT



Вы не можете начинать темы
Вы не можете отвечать на сообщения
Вы не можете редактировать свои сообщения
Вы не можете удалять свои сообщения
Вы не можете голосовать в опросах
Вы не можете прикреплять файлы к сообщениям
Вы не можете скачивать файлы