Загадка иберийской рыси / Mystery of the Lynx (Клаус Файхтенбергер / Klaus Feichtenberger) [2012, Документальный, HDTV 1080i]

 
Автор Сообщение

TorrentFilm ®

Пол:

Стаж: 2 года 6 месяцев

Сообщений: 7773



Награды: Нет

Торрент-статистика

Создавать темы 28-Фев-2015 00:01

[Цитировать]

Загадка иберийской рыси
Mystery of the Lynx
-- Год выпуска: 2012
Страна: США
Жанр: Документальный
Продолжительность: 00:43:45
Перевод: Студийный (одноголосый закадровый)
Доп. инфо о переводе: Станислав Войнич / студия "ВЕЛЕС"
Русские субтитры: нет
Режиссер: Клаус Файхтенбергер / Klaus Feichtenberger
Описание: Последний приют самой редкой кошки планеты. Две части охраняемого заповедника на юге Испании служат одной цели: они дают пристанище диким животным и растениям, некогда процветавшим, а теперь практически исчезнувшим. Иберийская рысь находится на гране вымирания и отчаянно борется за выживание, с небольшой помощью друзей.
This is the story of a species in extremis: The Iberian lynx is probably the world’s most beautiful cat. Yet it may well be the most unknown. It’s certainly the world’s most endangered and rarest cat – on the very brink of extinction. But, at the very last moment, the Iberian lynx is now making a tentative comeback - with more than just a little help from its friends. The program for the reintroduction of the Iberian lynx has been risky and intensive, bringing together an impressive workforce of international experts. Meanwhile, it’s a reference project of global importance since it profits not only the Iberian lynx but a score of related wildlife species. This program beautifully portrays Iberia’s charismatic big cat, a specialized rabbit hunter, in its habitat - the most stunning and wildest landscapes of southern Spain. The leap of the Iberian lynx back from hopelessness into a sustainable future is a truly inspiring drama about the future co-existence of humans and wildlife.
Тип релиза: HDTV 1080i
Контейнер: TS
Видео кодек: H.264
Аудио кодек: MP2
Видео: MPEG4 Video (H.264), 1920x1080, 16:9, ~11500 kbps, 25 fps
Аудио RUS: MP2, 192 Кбит/с, 48 kHz, 2 ch
Аудио ENG: MP2, 192 Кбит/с, 48 kHz, 2 ch

MediaInfo

GeneralID : 1 (0x1)Complete name : ...\Загадка иберийской рыси\Mystery of the Lynx (Rus, Eng, HDTV-1080i, h264, MP2) [2012].tsFormat : MPEG-TSFile size : 3.82 GiBDuration : 43mn 45sOverall bit rate mode : VariableOverall bit rate : 12.5 Mbps
VideoID : 4113 (0x1011)Menu ID : 1 (0x1)Format : AVCFormat/Info : Advanced Video CodecFormat profile : High@L4.0Format settings, CABAC : YesFormat settings, ReFrames : 4 framesCodec ID : 27Duration : 43mn 44sBit rate : 11.5 MbpsWidth : 1 920 pixelsHeight : 1 080 pixelsDisplay aspect ratio : 16:9Frame rate : 25.000 fpsStandard : ComponentColor space : YUVChroma subsampling : 4:2:0Bit depth : 8 bitsScan type : InterlacedScan order : Top Field FirstBits/(Pixel*Frame) : 0.222Stream size : 3.51 GiB (92%)Color primaries : BT.709Transfer characteristics : BT.709Matrix coefficients : BT.709Color range : Limited
Audio #1ID : 4352 (0x1100)Menu ID : 1 (0x1)Format : MPEG AudioFormat version : Version 1Format profile : Layer 2Codec ID : 3Duration : 43mn 44sBit rate mode : ConstantBit rate : 192 KbpsChannel(s) : 2 channelsSampling rate : 48.0 KHzCompression mode : LossyDelay relative to video : -120msStream size : 60.1 MiB (2%)Language : English
Audio #2ID : 4353 (0x1101)Menu ID : 1 (0x1)Format : MPEG AudioFormat version : Version 1Format profile : Layer 2Codec ID : 3Duration : 43mn 44sBit rate mode : ConstantBit rate : 192 KbpsChannel(s) : 2 channelsSampling rate : 48.0 KHzCompression mode : LossyDelay relative to video : -120msStream size : 60.1 MiB (2%)Language : English
[Профиль] [ЛС]
Показать сообщения:    

Текущее время: Сегодня 13:57

Часовой пояс: GMT



Вы не можете начинать темы
Вы не можете отвечать на сообщения
Вы не можете редактировать свои сообщения
Вы не можете удалять свои сообщения
Вы не можете голосовать в опросах
Вы не можете прикреплять файлы к сообщениям
Вы не можете скачивать файлы