Завоеватели мира животных / The Conquerors [серии 1-4 из 4] (Жером Сегюр, Николас Габриель, Винсент Амуру, Бруно Виктор-Пуджибет) [2012 г., Документальный, путешествие, исследование, фауна, HDTVRip 720p]

 
Автор Сообщение

skorpionN ®

Пол:

Стаж: 1 год 8 месяцев

Сообщений: 592



Награды: 4 (Подробнее)

Top Releaser 2 (Количество: 1) Mega Seeder 2 (Количество: 1) Mega Seeder 1 (Количество: 1)
Торрент-статистика

Создавать темы 12-Ноя-2015 21:27

[Цитировать]

Завоеватели мира животных / The Conquerors [серии 1-4 из 4]
Год выпуска: 2012
Страна: Франция, ZED
Жанр: Документальный, путешествие, исследование, фауна
Продолжительность: 4 x ~ 00:50:00
Перевод: Профессиональный (одноголосый), переведено и озвучено SDI Media, перевод Александры Домбровской, текст читает Юрий Большаков
Режиссер: Жером Сегюр, Николас Габриель, Винсент Амуру, Бруно Виктор-Пуджибет
Описание: Краб, гусеница, муравей – действительно ли эти создания такие безобидные или нам стоит их бояться? Возможно, они почти невидимы, но они также могут представлять опасность для других животных. Порой они выходят ночью, а иногда и днем. Они пожирают, убивают, разоряют и опустошают земли. Напоминает сценарий фильма ужасов? В каком-то смысле, так и есть. Но кто же эти хищные завоеватели? Мы узнаем об одних из самых удивительных животных и насекомых и их трансформации. Как они изменили свое поведение и свою социальную организацию, которая привела их к господству.
Список серий:
01. Камчатский краб / The Giant Crab of Kamchatka
02. Сосновый походный шелкопряд / The Pine Processionary Caterpillar
03. Рыба – лев (Крылатки) / The Lion Fish
04. Огненные муравьи / The Fire Ant

Качество: HDTVRip 720p
Формат: MKV
Видео кодек: H.264
Аудио кодек: AC3
Видео: 1280x720 29.970fps 5357 kbps
Аудио 1: (Rus) AC3, 2ch, 192 kbps, 48 kHz
Аудио 2: (Ukr) AC3, 2ch, 192 kbps, 48 kHz
Аудио 3: (En) AC3, 2ch, 192 kbps, 48 kHz

Скриншоты


MediaInfo:

Format : Matroska
Format version : Version 4 / Version 2
File size : 2.11 GiB
Duration : 49mn 57s
Overall bit rate : 6 053 Kbps
Encoded date : UTC 2015-11-01 12:58:01
Writing application : mkvmerge v7.3.0 ('Nouages') 64bit built on Oct 22 2014 18:53:34
Writing library : libebml v1.3.0 + libmatroska v1.4.1
DURATION : 00:49:56.960000000
NUMBER_OF_FRAMES : 93655
NUMBER_OF_BYTES : 71927040
_STATISTICS_WRITING_APP : mkvmerge v7.3.0 ('Nouages') 64bit built on Oct 22 2014 18:53:34
_STATISTICS_WRITING_DATE_UTC : 2015-11-01 12:58:01
_STATISTICS_TAGS : BPS DURATION NUMBER_OF_FRAMES NUMBER_OF_BYTES
Video
ID : 1
Format : AVC
Format/Info : Advanced Video Codec
Format profile : High@L4.1
Format settings, CABAC : Yes
Format settings, ReFrames : 8 frames
Codec ID : V_MPEG4/ISO/AVC
Duration : 49mn 57s
Bit rate : 5 357 Kbps
Width : 1 280 pixels
Height : 720 pixels
Display aspect ratio : 16:9
Frame rate mode : Constant
Frame rate : 29.970 fps
Color space : YUV
Chroma subsampling : 4:2:0
Bit depth : 8 bits
Scan type : Progressive
Bits/(Pixel*Frame) : 0.194
Stream size : 1.87 GiB (88%)
Writing library : x264 core 129 r2245 bc13772
Encoding settings : cabac=1 / ref=8 / deblock=1:-1:-1 / analyse=0x3:0x113 / me=umh / subme=7 / psy=1 / psy_rd=1.00:0.00 / mixed_ref=0 / me_range=30 / chroma_me=1 / trellis=2 / 8x8dct=1 / cqm=0 / deadzone=21,11 / fast_pskip=0 / chroma_qp_offset=-2 / threads=6 / lookahead_threads=1 / sliced_threads=0 / nr=0 / decimate=1 / interlaced=0 / bluray_compat=0 / constrained_intra=0 / bframes=5 / b_pyramid=0 / b_adapt=2 / b_bias=0 / direct=1 / weightb=1 / open_gop=0 / weightp=2 / keyint=300 / keyint_min=29 / scenecut=40 / intra_refresh=0 / rc=cqp / mbtree=0 / qp=20 / ip_ratio=1.40 / pb_ratio=1.30 / aq=0
Language : English
Default : Yes
Forced : No
DURATION : 00:49:57.127000000
NUMBER_OF_FRAMES : 89824
NUMBER_OF_BYTES : 2050929118
_STATISTICS_WRITING_APP : mkvmerge v7.3.0 ('Nouages') 64bit built on Oct 22 2014 18:53:34
_STATISTICS_WRITING_DATE_UTC : 2015-11-01 12:58:01
_STATISTICS_TAGS : BPS DURATION NUMBER_OF_FRAMES NUMBER_OF_BYTES
Audio #1
ID : 2
Format : AC-3
Format/Info : Audio Coding 3
Mode extension : CM (complete main)
Format settings, Endianness : Big
Codec ID : A_AC3
Duration : 49mn 57s
Bit rate mode : Constant
Bit rate : 192 Kbps
Channel(s) : 2 channels
Channel positions : Front: L R
Sampling rate : 48.0 KHz
Bit depth : 16 bits
Compression mode : Lossy
Stream size : 68.6 MiB (3%)
Language : Russian
Default : No
Forced : No
Audio #2
ID : 3
Format : AC-3
Format/Info : Audio Coding 3
Mode extension : CM (complete main)
Format settings, Endianness : Big
Codec ID : A_AC3
Duration : 49mn 57s
Bit rate mode : Constant
Bit rate : 192 Kbps
Channel(s) : 2 channels
Channel positions : Front: L R
Sampling rate : 48.0 KHz
Bit depth : 16 bits
Compression mode : Lossy
Stream size : 68.6 MiB (3%)
Language : Ukrainian
Default : No
Forced : No
Audio #3
ID : 4
Format : AC-3
Format/Info : Audio Coding 3
Mode extension : CM (complete main)
Format settings, Endianness : Big
Codec ID : A_AC3
Duration : 49mn 57s
Bit rate mode : Constant
Bit rate : 192 Kbps
Channel(s) : 2 channels
Channel positions : Front: L R
Sampling rate : 48.0 KHz
Bit depth : 16 bits
Compression mode : Lossy
Stream size : 68.6 MiB (3%)
Language : English
Default : Yes
Forced : No
[Профиль] [ЛС]
Показать сообщения:    

Текущее время: Сегодня 14:56

Часовой пояс: GMT



Вы не можете начинать темы
Вы не можете отвечать на сообщения
Вы не можете редактировать свои сообщения
Вы не можете удалять свои сообщения
Вы не можете голосовать в опросах
Вы не можете прикреплять файлы к сообщениям
Вы не можете скачивать файлы