Завод (2018) WEB-DLRip | iTunes

 
Author Message

BOSS ®

Gender:

Longevity: 4 years 7 months

Posts: 14097

Location: ODESSA



: 22 ()

Mega Seeder 3 (1) Top Releaser 2 (1) Mega Releaser 1 (1)
Торрент-статистика

Post 14-Mar-2019 19:04

[Quote]

Завод / The Factory
Страна: Россия Армения Франция
Производство: START, KinoVista, Wild Bunch, Инвада фильм, Шарм Холдинг, Yellow, Black & White
Год выпуска: 2018
Жанр: криминал, драма, триллер
Продолжительность: 01:50:43
Режиссер: Юрий Быков
В ролях: Денис Шведов, Андрей Смоляков, Владислав Абашин, Иван Янковский, Александр Бухаров, Алексей Комашко, Александр Баширов
Описание: Прямо посреди дня из своего «мерса» похищен местный олигарх Калугин. Неизвестные в балаклавах потребовали за него большой выкуп. Отвезти деньги берётся глава личной охраны бизнесмена по кличке Туман. Его вооружённые до зубов «спецы» приезжают ночью на завод Калугина, где теперь босса держат в заложниках. Они пока не знают, что те другие, забаррикадировавшиеся в цехе — это местные рабочие во главе с бывшим спецназовцем по прозвищу Седой. Полгода без зарплаты и предстоящее банкротство завода толкнули их на отчаянный шаг.
Чтобы вытащить своего хозяина, «спецы» не остановятся ни перед чем. Но в отличие от них «работягам» больше нечего терять…

Перевод: не требуется (оригинал) | iTunes
Субтитры: нет-Качество: WEB-DLRip
Формат: AVI
Видео кодек: XviD
Аудио кодек: АС3
Видео: 720x304 (2.35:1), 24.000 fps, XviD build 73 ~2 258 kbps avg
Аудио: 48.0 kHz, AC3 Dolby Digital, 3/2 (L,C,R,l,r) + LFE ch, ~384 kbps
Дата премьеры (мир): 7 сентября 2018
Дата премьеры (РФ): 7 февраля 2019, «Централ Партнершип»
Релиз от: порошков

Media Info

General
Формат : AVI
Формат/Информация : Audio Video Interleave
Профиль формата : OpenDML
Размер файла : 2,05 Гбайт
Продолжительность : 1 ч. 50 м.
Общий поток : 2654 Кбит/сек
Программа кодирования : VirtualDubMod 1.5.10.3 | (build 2550/release)
Библиотека кодирования : VirtualDubMod build 2550/release
Видео
Идентификатор : 0
Формат : MPEG-4 Visual
Профиль формата : Advanced Simple@L5
Настройки формата : BVOP1 / Custom Matrix
Параметр BVOP формата : 1
Параметр QPel формата : Нет
Параметр GMC формата : Без точки перехода
Параметр матрицы формата : Выборочная
Идентификатор кодека : XVID
Идентификатор кодека/Подсказка : XviD
Продолжительность : 1 ч. 50 м.
Битрейт : 2258 Кбит/сек
Ширина : 720 пикселей
Высота : 304 пикселя
Соотношение сторон : 2,35:1
Частота кадров : 24,000 кадра/сек
Цветовое пространство : YUV
Субдискретизация насыщенности : 4:2:0
Битовая глубина : 8 бит
Тип развёртки : Прогрессивная
Метод сжатия : С потерями
Бит/(Пиксели*Кадры) : 0.430
Размер потока : 1,75 Гбайт (85%)
Библиотека кодирования : XviD 73
Аудио
Идентификатор : 1
Формат : AC-3
Формат/Информация : Audio Coding 3
Коммерческое название : Dolby Digital
Идентификатор кодека : 2000
Продолжительность : 1 ч. 50 м.
Вид битрейта : Постоянный
Битрейт : 384 Кбит/сек
Каналы : 6 каналов
Channel layout : L R C LFE Ls Rs
Частота : 48,0 КГц
Частота кадров : 31,250 кадров/сек (1536 SPF)
Битовая глубина : 16 бит
Метод сжатия : С потерями
Размер потока : 304 Мбайт (14%)
Выравнивание : Разделение по промежуткам
Продолжительность промежутка : 42 мс. (1,00 видеокадр)
Время предзагрузки промежутка : 500 мс.

Скриншоты

[Profile] [PM]
Display posts from previous:    

The time now is: Today 07:09

All times are GMT



You cannot post new topics in this forum
You cannot reply to topics in this forum
You cannot edit your posts in this forum
You cannot delete your posts in this forum
You cannot vote in polls in this forum
You cannot attach files in this forum
You cannot download files in this forum