Забытое / 4Got10 (Тимоти Вудворд мл. / Timothy Woodward Jr.) [2015, США, боевик, триллер, вестерн, HDRip] VO (Павел Морозов)

 
Автор Сообщение

TorrentFilm ®

Пол:

Стаж: 1 год 11 месяцев

Сообщений: 7741



Награды: Нет

Торрент-статистика

Создавать темы 26-Окт-2015 00:11

[Цитировать]

Забытое / 4Got10
Страна: США
Жанр: боевик, триллер, вестерн
Год выпуска: 2015
Продолжительность: 01:23:56-Перевод: Enigma
Озвучено: Одноголосный закадровый (Павел Морозов)-Cубтитры: нет
Режиссер: Тимоти Вудворд мл. / Timothy Woodward Jr.-В ролях: Джонни Месснер, Дольф Лундгрен, Дэнни Трехо, Вивика А. Фокс, Майкл Паре, Наташа Мальте, Джон Лофлин, Энджелл Конвелл, Клемент Тинаж, Эрин О’Брайэн...-Описание: Брайан Барнс (Джонни Месснер) просыпается в пустыне, он ранен и без памяти, и не понимает, почему его окружают восемь трупов, фургон с четырьмя миллионами наличными и фургон с кокаином. Брайана преследует не только пресловутый наркобарон Дэнни Перес (Дэнни Трехо), который отчаянно хочет, чтобы вернуть свои деньги обратно, но и агент DEA Рукер (Дольф Лундгрен), а также коррумпированный Шериф Олсон (Майкл Паре), который не остановится, ни перед чем, чтобы получить в руки богатство. На бегу, Брайан узнает, чем больше он вспоминает, тем меньше он хочет знать о том, кто он на самом деле.-Сэмпл: http://sendfile.su/1167032-Качество видео: HDRip
Формат видео: AVI
Видео: XviD, 720x304 (2.37:1), 23.976 fps, 2213 kbps
Аудио: 48 kHz, AC3 Dolby Digital, 2/0 (L,R) ch, ~192 kbps

MediaInfo

Формат : AVI
Формат/Информация : Audio Video Interleave
Размер файла : 1,42 Гбайт
Продолжительность : 1 ч. 23 м.
Общий поток : 2415 Кбит/сек
Программа кодирования : VirtualDubMod 1.5.10.2 (build 2540/release)
Библиотека кодирования : VirtualDub build 35390/release
Видео
Идентификатор : 0
Формат : MPEG-4 Visual
Профиль формата : Advanced Simple@L5
Параметр BVOP формата : 1
Параметр QPel формата : Нет
Параметр GMC формата : Без точки перехода
Параметр матрицы формата : Default (MPEG)
Идентификатор кодека : XVID
Идентификатор кодека/Подсказка : XviD
Продолжительность : 1 ч. 23 м.
Битрейт : 2213 Кбит/сек
Ширина : 720 пикселей
Высота : 304 пикселя
Соотношение сторон : 2,35:1
Частота кадров : 23,976 кадра/сек
Цветовое пространство : YUV
Субдискретизация насыщенности : 4:2:0
Битовая глубина : 8 бит
Тип развёртки : Прогрессивная
Метод сжатия : С потерями
Бит/(Пиксели*Кадры) : 0.422
Размер потока : 1,30 Гбайт (92%)
Библиотека кодирования : XviD 1.2.1 (UTC 2008-12-04)
Аудио
Идентификатор : 1
Формат : AC-3
Формат/Информация : Audio Coding 3
Расширение режима : CM (complete main)
Параметр Endianness формата : Big
Идентификатор кодека : 2000
Продолжительность : 1 ч. 23 м.
Вид битрейта : Постоянный
Битрейт : 192 Кбит/сек
Каналы : 2 канала
Расположение каналов : Front: L R
Частота : 48,0 КГц
Метод сжатия : С потерями
Размер потока : 115 Мбайт (8%)
Выравнивание : Разделение по промежуткам
Продолжительность промежутка : 42 мс. (1,00 видеокадр)
Время предзагрузки промежутка : 500 мс.

Скриншот c названием фильма

Скриншоты






[Профиль] [ЛС]
Показать сообщения:    

Текущее время: Сегодня 04:58

Часовой пояс: GMT



Вы не можете начинать темы
Вы не можете отвечать на сообщения
Вы не можете редактировать свои сообщения
Вы не можете удалять свои сообщения
Вы не можете голосовать в опросах
Вы не можете прикреплять файлы к сообщениям
Вы не можете скачивать файлы