Заброшенный / Forsaken (2015) WEB-DL 1080p | Р

 
Автор Сообщение

Russian Mafia ®

Пол:

Стаж: 1 год 8 месяцев

Сообщений: 4253



Награды: 10 (Подробнее)

Mega Seeder 2 (Количество: 1) Mega Seeder 4 (Количество: 1) Top Releaser 5 (Количество: 1)
Торрент-статистика

Создавать темы 24-Мар-2016 06:22

[Цитировать]

Название: Заброшенный
Оригинальное название: Forsaken
Год выхода: 2015
Жанр: драма, вестерн
Режиссер: Джон Кассар
В ролях:
Кифер Сазерленд, Дональд Сазерленд, Деми Мур, Брайан Кокс, Майкл Уинкотт, Лэндон Либуарон, Шиван Уильямс, Джонни Рис, Аарон Пул, Али Уэбб, Уэсли Морган, Майкл Терриоль, Кристофер Розамунд и др.
О фильме:
Наёмный убийца Джон Генри оставляет своё кровавое ремесло и возвращается в родной город, надеясь восстановить отношения с собственным отцом. Вместе с тем местная банда терроризирует город.
Страна: Канада, Франция, США
Продолжительность: 01:29:46
Перевод: Профессиональный (многоголосый) FocusStudio
Субтитры: Русские

Файл
Формат: MKV
Качество: WEB-DL 1080p
Видео: 1912x792 (2.40:1), 23,976 fps, MPEG-4 AVC, 4286 kbps, 0.118 bit/pixel
Аудио RUS: AC3, 2 ch, 48 kHz, 192 kbps
Аудио ENG: AC3, 6 ch, 48 kHz, 384 kbps
Релиз группа:

MediaInfo

Format : Matroska
Format version : Version 4 / Version 2
File size : 3.11 GiB
Duration : 1h 29mn
Overall bit rate : 4 960 Kbps
Movie name : Forsaken (2015) @ FocusStudio
Encoded date : UTC 2016-03-22 18:21:59
Writing application : mkvmerge v8.3.0 ('Over the Horizon') 64bit
Writing library : libebml v1.3.1 + libmatroska v1.4.2
Video
ID : 1
Format : AVC
Format/Info : Advanced Video Codec
Format profile : High@L4
Format settings, CABAC : Yes
Format settings, ReFrames : 5 frames
Codec ID : V_MPEG4/ISO/AVC
Duration : 1h 29mn
Bit rate : 4 286 Kbps
Width : 1 912 pixels
Height : 792 pixels
Display aspect ratio : 2.40:1
Frame rate mode : Constant
Frame rate : 23.976 fps
Color space : YUV
Chroma subsampling : 4:2:0
Bit depth : 8 bits
Scan type : Progressive
Bits/(Pixel*Frame) : 0.118
Stream size : 2.69 GiB (86%)
Language : English
Default : Yes
Forced : No
Color range : Limited
Color primaries : BT.709
Transfer characteristics : BT.709
Matrix coefficients : BT.709
Audio #1
ID : 2
Format : AC-3
Format/Info : Audio Coding 3
Mode extension : CM (complete main)
Format settings, Endianness : Big
Codec ID : A_AC3
Duration : 1h 29mn
Bit rate mode : Constant
Bit rate : 192 Kbps
Channel(s) : 2 channels
Channel positions : Front: L R
Sampling rate : 48.0 KHz
Compression mode : Lossy
Stream size : 123 MiB (4%)
Title : MVO FocusStudio
Language : Russian
Default : Yes
Forced : No
Audio #2
ID : 3
Format : AC-3
Format/Info : Audio Coding 3
Mode extension : CM (complete main)
Format settings, Endianness : Big
Codec ID : A_AC3
Duration : 1h 29mn
Bit rate mode : Constant
Bit rate : 384 Kbps
Channel(s) : 6 channels
Channel positions : Front: L C R, Side: L R, LFE
Sampling rate : 48.0 KHz
Compression mode : Lossy
Stream size : 247 MiB (8%)
Language : English
Default : No
Forced : No
Text
ID : 4
Format : UTF-8
Codec ID : S_TEXT/UTF8
Codec ID/Info : UTF-8 Plain Text
Language : Russian
Default : No
Forced : No
Menu
00:00:00.000 : en:Chapter 1
00:07:38.041 : en:Chapter 2
00:16:00.585 : en:Chapter 3
00:23:26.864 : en:Chapter 4
00:31:42.943 : en:Chapter 5
00:38:46.408 : en:Chapter 6
00:45:22.595 : en:Chapter 7
00:54:33.938 : en:Chapter 8
01:00:32.379 : en:Chapter 9
01:08:51.586 : en:Chapter 10
01:19:13.207 : en:Chapter 11
01:25:39.426 : en:Chapter 12

Скриншоты

[Профиль] [ЛС]
Показать сообщения:    

Текущее время: Сегодня 06:06

Часовой пояс: GMT



Вы не можете начинать темы
Вы не можете отвечать на сообщения
Вы не можете редактировать свои сообщения
Вы не можете удалять свои сообщения
Вы не можете голосовать в опросах
Вы не можете прикреплять файлы к сообщениям
Вы не можете скачивать файлы