Заброшенная шахта / Abandoned Mine (Джефф Чемберлен / Jeff Chamberlain) [2013, США, ужасы, триллер, детектив, приключения, HDTV 1080i] MVO

 
Автор Сообщение

reversefile ®

Пол:

Стаж: 4 года 5 месяцев

Сообщений: 842

Откуда: ReverseFile.org



Награды: Нет

Торрент-статистика

Создавать темы 11-Авг-2014 10:40

[Цитировать]

Заброшенная шахта / Abandoned Mine Страна: США
Жанр: ужасы, триллер, детектив, приключения
Год выпуска: 2013
Продолжительность: 01:31:20
Перевод: Профессиональный (многоголосый закадровый)
Cубтитры: нет
Режиссер: Джефф Чемберлен / Jeff Chamberlain
В ролях: Алекса ПенаВега, Рейли МакКлендон, Сэйдж Томпсон, Чаран Прабхакар, Адам Хендершотт, Валери С. Уолкер, Джозеф Бацел, Джордан Чемберлен, Коуди Уокер
Описание: В поисках приключений на Хэллоуин пятеро школьных друзей проникают в шахту, по слухам населенную призраками, — только чтобы обнаружить, к своему ужасу, что страшные истории могут быть правдой…
В AVI от edich2

Кинопоиск: http://www.kinopoisk.ru/film/433195/
Сэмпл: http://multi-up.com/991390
Тип релиза: HDTV 1080i
Контейнер: TS
Видео: AVC/H.264, PAL, 1920x1080 (16:9), 9026 Кбит/сек, 25.000 fps
Аудио: русский, MP-2, 48000 Hz, 192 Кбит/сек, 2 ch

MediaInfo

Видео
Идентификатор : 224 (0xE0)
Идентификатор меню : 1 (0x1)
Формат : AVC
Формат/Информация : Advanced Video Codec
Профиль формата : High@L4.1
Параметр CABAC формата : Да
Параметр ReFrames формата : 3 кадра
Идентификатор кодека : 27
Продолжительность : 1 ч. 31 м.
Вид битрейта : Постоянный
Битрейт : 9026 Кбит/сек
Ширина : 1920 пикселей
Высота : 1080 пикселей
Соотношение сторон : 16:9
Частота кадров : 25,000 кадров/сек
Стандарт вещания : PAL
Цветовое пространство : YUV
Субдискретизация насыщенности : 4:2:0
Битовая глубина : 8 бит
Тип развёртки : Чересстрочная
Порядок развёртки : Верхнее поле первое
Бит/(Пиксели*Кадры) : 0.174
Размер потока : 5,65 Гбайт (93%)
Основные цвета : BT.709
Характеристики трансфера : BT.709
Коэффициенты матрицы : BT.709
Аудио
Идентификатор : 192 (0xC0)
Идентификатор меню : 1 (0x1)
Формат : MPEG Audio
Версия формата : Version 1
Профиль формата : Layer 2
Идентификатор кодека : 3
Продолжительность : 1 ч. 31 м.
Вид битрейта : Постоянный
Битрейт : 192 Кбит/сек
Каналы : 2 канала
Частота : 48,0 КГц
Метод сжатия : С потерями
Размер потока : 125 Мбайт (2%)
Язык : Russian

Скриншот с названием фильма

Скриншоты

[Профиль] [ЛС]
Показать сообщения:    

Текущее время: Сегодня 22:22

Часовой пояс: GMT



Вы не можете начинать темы
Вы не можете отвечать на сообщения
Вы не можете редактировать свои сообщения
Вы не можете удалять свои сообщения
Вы не можете голосовать в опросах
Вы не можете прикреплять файлы к сообщениям
Вы не можете скачивать файлы