Заблудшие / The Lost (Брайан Горес / Bryan Goeres) [2009, Испания, мистика, DVDRip] MVO (ТВ3) + MVO (DVD)

 
Автор Сообщение

TorrentFilm ®

Пол:

Стаж: 2 года

Сообщений: 7741



Награды: Нет

Торрент-статистика

Создавать темы 30-Авг-2015 00:10

[Цитировать]

Заблудшие
The Lost

Страна: США, Испания
Жанр: мистика
Год выпуска: 2009
Продолжительность: 01:34:25-Перевод 1: Профессиональный (многоголосый закадровый) ТВ3
Перевод 2: Профессиональный (многоголосый закадровый) DVD
Cубтитры: нет
Оригинальная аудиодорожка: нет-Режиссер: Брайан Горес / Bryan Goeres
В ролях: Арманд Ассант, Дина Мэйер, Лэйси Чэберт, Серхи Матеу, Ферран Лахос, Дэвид Сельвас, Хорхе Боск, Рикард Салес-Описание: Что может заставить известного писателя на время бросить успешную литературную деятельность и вернуться назад к работе с психами? Конечно же страх оказаться обвиненным в некомпетентности и потерять столь высокий авторитет. Именно поэтому доктор Кевин Кюри возвращается к очень сложной пациентке по имени Джейн. Она страдает редким психическим заболеванием — синдромом множественной личности, кроме самой Джейн в ней живет три человека, каждый из которых — индивидуальность. Распутать клубок загадок, которые привели к такому неординарному расстройству психики — первостепенная задача Кевина. Углубляясь в работу, доктор начинает выяснять кто эти люди, живущие внутри Джейн. Расследование приводит к самым неожиданным открытиям-Доп. информация: DVDRip скачан с рутора, спасибо рыхлый
О переводе ТВ3: Перевод на трекере появляется впервые
Качество: IPTV (ТВ3)
Запись и синхронизация: mister55555-Сэмпл: минута55сек-Качество видео: DVDRip
Формат видео: AVI
Видео: DivX 5, 704х400, 16:9, 25,000 кадров/сек, 1745 Кбит/сек
Аудио 1: AC-3, 48,0 КГц, 192 Кбит/сек, 2 канала (многоголосый ТВ3)
Аудио 2: AC-3, 48,0 КГц, 192 Кбит/сек, 2 канала (многоголосый DVD)

Сравнение с Last Boy Scout

DVDRip
6 скринов

MediaInfo

Общее
Полное имя : D:\с диска Е\инет\Раздачи\Заблудшие.2009.DVDRip\Заблудшие.2009.DVDRip.avi
Формат : AVI
Формат/Информация : Audio Video Interleave
Размер файла : 1,41 Гбайт
Продолжительность : 1 ч. 34 м.
Общий поток : 2143 Кбит/сек
Видео
Идентификатор : 0
Формат : MPEG-4 Visual
Параметр BVOP формата : 1
Параметр QPel формата : Нет
Параметр GMC формата : Без точки перехода
Параметр матрицы формата : Default (H.263)
Идентификатор кодека : DX50
Идентификатор кодека/Подсказка : DivX 5
Продолжительность : 1 ч. 34 м.
Битрейт : 1745 Кбит/сек
Ширина : 704 пикселя
Высота : 400 пикселей
Соотношение сторон : 16:9
Частота кадров : 25,000 кадров/сек
Цветовое пространство : YUV
Субдискретизация насыщенности : 4:2:0
Битовая глубина : 8 бит
Тип развёртки : Прогрессивная
Метод сжатия : С потерями
Бит/(Пиксели*Кадры) : 0.248
Размер потока : 1,15 Гбайт (81%)
Библиотека кодирования : DivX 6.8.5 (UTC 2009-08-20)
Аудио #1
Идентификатор : 1
Формат : AC-3
Формат/Информация : Audio Coding 3
Расширение режима : CM (complete main)
Параметр Endianness формата : Big
Идентификатор кодека : 2000
Продолжительность : 1 ч. 34 м.
Вид битрейта : Постоянный
Битрейт : 192 Кбит/сек
Каналы : 2 канала
Расположение каналов : Front: L R
Частота : 48,0 КГц
Метод сжатия : С потерями
Размер потока : 130 Мбайт (9%)
Выравнивание : Разделение по промежуткам
Продолжительность промежутка : 40 мс. (1,00 видеокадр)
Время предзагрузки промежутка : 500 мс.
Заголовок : многоголосый ТВ3
Аудио #2
Идентификатор : 2
Формат : AC-3
Формат/Информация : Audio Coding 3
Расширение режима : CM (complete main)
Параметр Endianness формата : Big
Идентификатор кодека : 2000
Продолжительность : 1 ч. 34 м.
Вид битрейта : Постоянный
Битрейт : 192 Кбит/сек
Каналы : 2 канала
Расположение каналов : Front: L R
Частота : 48,0 КГц
Метод сжатия : С потерями
Размер потока : 130 Мбайт (9%)
Выравнивание : Разделение по промежуткам
Продолжительность промежутка : 40 мс. (1,00 видеокадр)
Время предзагрузки промежутка : 500 мс.
Заголовок : многоголосый DVD

Скриншот c названием фильма

[Профиль] [ЛС]

Создавать темы 12-Июн-2016 08:13 (спустя 9 месяцев 13 дней)

Топик был перенесен из форума Фильмы 2011 года в форум Фильмы 2009 года
Russian Mafia
 
Показать сообщения:    

Текущее время: Сегодня 06:27

Часовой пояс: GMT



Вы не можете начинать темы
Вы не можете отвечать на сообщения
Вы не можете редактировать свои сообщения
Вы не можете удалять свои сообщения
Вы не можете голосовать в опросах
Вы не можете прикреплять файлы к сообщениям
Вы не можете скачивать файлы