Забери мою душу / My Soul to Take (Уэс Крэйвен / Wes Craven) [2010, США, ужасы, триллер, детектив, BDRip-AVC] Dub + Original (Eng) + Sub (Eng)

 
Автор Сообщение

painkiller ®

Стаж: 2 года 3 месяца

Сообщений: 582



Награды: Нет

Торрент-статистика

Создавать темы 15-Авг-2014 01:08

[Цитировать]

Забери мою душу / My Soul to Take«Что, если его душа в одном из нас?»- Страна: США
Жанр: ужасы, триллер, детектив
Год выпуска: 2010
Продолжительность: 01:47:17-Перевод: Профессиональный (дублированный)
Оригинальная аудиодорожка: English
Cубтитры: English
Навигация по главам: Присутствует-Режиссер: Уэс Крэйвен / Wes Craven
В ролях: Макс Тириот, Джон Магаро, Дэнзел Уитакер, Ник Лашэвэй, Эмили Миде, Фрэнк Грилло, Зена Грэй, Джессика Хехт, Деннис Буцикарис, Шарика Эппс, Кристиан Николае, Бет Мари Джэнсен, Мелоди Уайсс, Кейтлин Стоу, Кортни Стоу, Ричард Рутковски, Крис Плэйс, Ханна Ходсон, Терри Дуглас, Роберт Клотуорти-Описание: Сонный городишко Ривертон ожидает исполнения пророчества: серийный убийца должен вернуться на место своих преступлений, чтобы убить семерых детей, родившихся в день его смерти. Но действительно ли маньяк мертв? Или зло переселилось в тело неосторожного подростка, которому теперь предстоит завершить страшную миссию?-imdb.com: 4.70 (13 303)
kinopoisk.ru: 5.130 (8167)
Download sample-Качество видео: BDRip-AVC | исх. My Soul to Take Blu-Ray Remux (1080p)
Формат видео: MKV-Видео: 1 120x476 (2.35:1), 23.976 fps, AVC ~3801 kbps avg, 0.290 bit/pixel
Аудио №1: 48 kHz, AC3, 3/2 (L,C,R,l,r) + LFE ch, ~448.00 kbps avg | Профессиональный (дублированный)
Аудио №2: 48 kHz, AC3, 3/2 (L,C,R,l,r) + LFE ch, ~448.00 kbps avg | English-

MediaInfo

General
Unique ID : 170588836595540036598322954566769389962 (0x80563700EAEF26CF9BC29453CCF9318A)
Complete name : D:\Фильмы\Рипы\My.Soul.to.Take.2010.BDRip-AVC.by Fredd Kruger.mkv
Format : Matroska
Format version : Version 2
File size : 3.52 GiB
Duration : 1h 47mn
Overall bit rate : 4 695 Kbps
Movie name : My Soul to Take (2010) - Release for rutracker by Fredd Kruger
Encoded date : UTC 2014-02-19 09:18:47
Writing application : mkvmerge v5.0.1 ('Es ist Sommer') built on Nov 6 2011 16:23:40
Writing library : libebml v1.2.2 + libmatroska v1.3.0
Video
ID : 1
Format : AVC
Format/Info : Advanced Video Codec
Format profile : High@L4.1
Format settings, CABAC : Yes
Format settings, ReFrames : 15 frames
Codec ID : V_MPEG4/ISO/AVC
Duration : 1h 47mn
Bit rate : 3 706 Kbps
Width : 1 120 pixels
Height : 476 pixels
Display aspect ratio : 2.35:1
Frame rate mode : Constant
Frame rate : 23.976 fps
Color space : YUV
Chroma subsampling : 4:2:0
Bit depth : 8 bits
Scan type : Progressive
Bits/(Pixel*Frame) : 0.290
Stream size : 2.78 GiB (79%)
Title : Encode by Fredd Kruger
Writing library : x264 core 142 r2389kMod 956c8d8
Encoding settings : cabac=1 / ref=15 / deblock=1:-3:-3 / analyse=0x3:0x133 / me=umh / subme=11 / psy=1 / fade_compensate=0.00 / psy_rd=1.00:0.00 / mixed_ref=1 / me_range=48 / chroma_me=1 / trellis=2 / 8x8dct=1 / cqm=0 / deadzone=21,11 / fast_pskip=1 / chroma_qp_offset=-2 / threads=8 / lookahead_threads=2 / sliced_threads=0 / nr=0 / decimate=1 / interlaced=0 / bluray_compat=0 / constrained_intra=0 / fgo=0 / bframes=16 / b_pyramid=2 / b_adapt=2 / b_bias=0 / direct=3 / weightb=1 / open_gop=0 / weightp=2 / keyint=250 / keyint_min=23 / scenecut=40 / intra_refresh=0 / rc_lookahead=60 / rc=crf / mbtree=0 / crf=17.3000 / qcomp=0.60 / qpmin=0 / qpmax=69 / qpstep=4 / vbv_maxrate=50000 / vbv_bufsize=62500 / crf_max=0.0 / nal_hrd=none / filler=0 / ip_ratio=1.40 / pb_ratio=1.30 / aq=3:0.85
Default : Yes
Forced : No
Audio #1
ID : 2
Format : AC-3
Format/Info : Audio Coding 3
Mode extension : CM (complete main)
Format settings, Endianness : Big
Codec ID : A_AC3
Duration : 1h 47mn
Bit rate mode : Constant
Bit rate : 448 Kbps
Channel count : 6 channels
Channel positions : Front: L C R, Side: L R, LFE
Sampling rate : 48.0 KHz
Bit depth : 16 bits
Compression mode : Lossy
Stream size : 344 MiB (10%)
Title : Dub
Language : Russian
Default : Yes
Forced : No
Audio #2
ID : 3
Format : AC-3
Format/Info : Audio Coding 3
Mode extension : CM (complete main)
Format settings, Endianness : Big
Codec ID : A_AC3
Duration : 1h 47mn
Bit rate mode : Constant
Bit rate : 448 Kbps
Channel count : 6 channels
Channel positions : Front: L C R, Side: L R, LFE
Sampling rate : 48.0 KHz
Bit depth : 16 bits
Compression mode : Lossy
Stream size : 344 MiB (10%)
Default : No
Forced : No
Text
ID : 4
Format : UTF-8
Codec ID : S_TEXT/UTF8
Codec ID/Info : UTF-8 Plain Text
Language : English
Default : Yes
Forced : No
Menu
00:00:00.000 : :Chapter 01
00:05:37.378 : :Chapter 02
00:09:26.232 : :Chapter 03
00:16:43.877 : :Chapter 04
00:19:52.316 : :Chapter 05
00:24:41.897 : :Chapter 06
00:29:31.978 : :Chapter 07
00:35:33.840 : :Chapter 08
00:40:49.113 : :Chapter 09
00:46:28.327 : :Chapter 10
00:51:44.643 : :Chapter 11
00:57:46.463 : :Chapter 12
00:59:57.427 : :Chapter 13
01:05:49.612 : :Chapter 14
01:12:55.371 : :Chapter 15
01:17:46.828 : :Chapter 16
01:19:50.952 : :Chapter 17
01:25:42.512 : :Chapter 18
01:29:13.389 : :Chapter 19
01:38:34.575 : :Chapter 20
01:47:10.215 : :Chapter 21

x264 log

x264 [info]: frame I:1337 Avg QP:15.06 size: 92214 PSNR Mean Y:47.33 U:49.29 V:51.19 Avg:48.07 Global:47.43
x264 [info]: frame P:30095 Avg QP:16.59 size: 36977 PSNR Mean Y:45.82 U:48.43 V:50.52 Avg:46.68 Global:45.92
x264 [info]: frame B:122745 Avg QP:18.81 size: 14825 PSNR Mean Y:44.86 U:48.02 V:50.57 Avg:45.82 Global:44.98
x264 [info]: consecutive B-frames: 1.9% 1.7% 4.9% 14.5% 14.3% 44.7% 7.0% 1.9% 2.2% 1.6% 1.4% 0.7% 1.2% 1.1% 0.4% 0.1% 0.4%
x264 [info]: mb I I16..4: 3.3% 83.9% 12.8%
x264 [info]: mb P I16..4: 0.3% 16.1% 1.1% P16..4: 25.3% 33.8% 18.3% 3.1% 0.2% skip: 1.9%
x264 [info]: mb B I16..4: 0.0% 2.2% 0.1% B16..8: 36.7% 24.7% 6.4% direct: 6.3% skip:23.7% L0:46.4% L1:43.1% BI:10.6%
x264 [info]: 8x8 transform intra:91.9% inter:55.7%
x264 [info]: direct mvs spatial:99.9% temporal:0.1%
x264 [info]: coded y,uvDC,uvAC intra: 97.8% 87.8% 73.0% inter: 35.8% 19.9% 5.6%
x264 [info]: i16 v,h,dc,p: 29% 15% 10% 47%
x264 [info]: i8 v,h,dc,ddl,ddr,vr,hd,vl,hu: 9% 7% 12% 10% 13% 13% 12% 12% 12%
x264 [info]: i4 v,h,dc,ddl,ddr,vr,hd,vl,hu: 10% 6% 4% 10% 17% 16% 14% 12% 12%
x264 [info]: i8c dc,h,v,p: 49% 20% 16% 16%
x264 [info]: Weighted P-Frames: Y:4.5% UV:2.3%
x264 [info]: ref P L0: 41.5% 8.6% 17.6% 6.8% 6.3% 4.0% 3.7% 2.0% 2.8% 1.5% 1.3% 1.0% 1.0% 0.8% 0.9% 0.1%
x264 [info]: ref B L0: 62.7% 13.7% 7.2% 4.0% 3.3% 2.3% 1.8% 1.1% 1.3% 1.0% 0.6% 0.6% 0.3% 0.1%
x264 [info]: ref B L1: 90.2% 9.8%
x264 [info]: SSIM Mean Y:0.9787424 (16.725db)
x264 [info]: PSNR Mean Y:45.066 U:48.109 V:50.563 Avg:46.011 Global:45.166 kb/s:3801.64
x264 [total]: encoded 154177 frames, 9.89 fps, 3801.64 kb/s
Скриншоты
--
[Профиль] [ЛС]

Создавать темы 06-Авг-2015 23:11 (спустя 11 месяцев 22 дня)

Топик был перенесен из форума Фильмы до 2014 года в форум Фильмы до 2012 года
sergej644
 

Создавать темы 12-Июн-2016 07:54 (спустя 1 год 9 месяцев)

Топик был перенесен из форума Фильмы 2011 года в форум Фильмы 2010 года
Russian Mafia
 
Показать сообщения:    

Текущее время: Сегодня 02:14

Часовой пояс: GMT



Вы не можете начинать темы
Вы не можете отвечать на сообщения
Вы не можете редактировать свои сообщения
Вы не можете удалять свои сообщения
Вы не можете голосовать в опросах
Вы не можете прикреплять файлы к сообщениям
Вы не можете скачивать файлы