Жuзнь Пu в 3Д / Lіfе оf Рі 3D (Энг Ли / Ang Lee) [2012, Драма, Приключения, BDrip, 1080p] OverUnder / Вертикальная стереопара

 
Автор Сообщение

TorrentFilm ®

Пол:

Стаж: 2 года

Сообщений: 7741



Награды: Нет

Торрент-статистика

Создавать темы 02-Янв-2016 00:03

[Цитировать]

Жизнь Пи / Lifе оf Рi
Год выпуска: 2012
Страна: США, Тайвань
Студия: Fox 2000 Pictures, Dune Entertainment, Ingenious Media
Жанр: Драма, Приключения
Продолжительность: 02:07:00
Перевод: Профессиональный (дублированный)
Русские субтитры: нет
Режиссер на русском: Энг Ли
Режиссер на английском: Ang Lee
В ролях: Сурадж Шарма, Ирфан Кхан, Рейф Сполл, Табу, Адиль Хуссэйн, Жерар Депардье, Аюш Тандон, Гаутам Белур, Аян Кхан, Мохд Аббас Халили
Роли озвучивали: Игорь Сергеев, Валерий Соловьев, Валерий Смекалов, Ирина Обрезкова
Описание: Еще одна история "Маугли", которая происходит не в джунглях, а посреди Тихого океана, где по бескрайней водной глади дрейфует лодка со спасшимися после кораблекрушения. Семья решает перебраться жить в Канаду, но корабль терпит крушение. Индийский подросток Пи оказывается на шлюпке посреди океана в компании неожиданного попутчика — грозного бенгальского тигра. Фильм поставлен по одноименной книге Янна Мартелла, за которую автор получил Букеровскую премию.
Качество: BDrip
Контейнер: MKV
Формат 3D: OverUnder / Вертикальная стереопара
Порядок ракурсов: левый ракурс первый
Видео кодек: x264
Аудио кодек: DTS
Видео: AVC / High@L5.0/ 23,976 fps / 1920х2068 / 22,4 Mbps
Аудио: Русский / DTS / 48 KHz / 5.1 ch / 755 Kbps
Аудио 2: Украинский / AC3 / 48 KHz / 5.1 ch / 448 Kbps
Аудио 3: Английский / AC3 / 48 KHz / 5.1 ch / 640 Kbps
ВНИМАНИЕ ! На встроенных ТВ-плейерах работать не будет!!!
Железные плееры на которых воспроизводятся полные стереопары:Popcorn C-200 , Dune HD Smart D1 , Dune HD DUO , Dune HD Smart H1 , Dune HD Smart B1 , Dune HD Max , Dune HD TV-303D , Dune HD Base 3D

MediaInfo

Общее
Уникальный идентификатор : 196516773233197344095741339311613067871 (0x93D7C0F9FB4C9CAABD4B29C2A8D6C25F)
Полное имя : F:\видео\Life of Pi.Rip by SeRoGa00.mkv
Формат : Matroska
Версия формата : Version 2
Размер файла : 21,9 Гбайт
Продолжительность : 2 ч. 7 м.
Общий поток : 24,7 Мбит/сек
Дата кодирования : UTC 2013-03-17 16:32:50
Программа кодирования : mkvmerge v3.4.0 ('Rapunzel') сборка от May 15 2010 09:38:20
Библиотека кодирования : libebml v0.8.0 + libmatroska v0.9.0
Видео
Идентификатор : 1
Формат : AVC
Формат/Информация : Advanced Video Codec
Профиль формата : High@L5.0
Параметр CABAC формата : Да
Параметр ReFrames формата : 4 кадра
Идентификатор кодека : V_MPEG4/ISO/AVC
Продолжительность : 2 ч. 7 м.
Битрейт : 22,4 Мбит/сек
Ширина : 1920 пикселей
Высота : 2068 пикселей
Соотношение сторон : 0,928
Частота кадров : 23,976 кадра/сек
Цветовое пространство : YUV
Субдискретизация насыщенности : 4:2:0
Битовая глубина : 8 бит
Тип развёртки : Прогрессивная
Бит/(Пиксели*Кадры) : 0.235
Размер потока : 19,8 Гбайт (91%)
Заголовок : Rip by SeRoGa00
Библиотека кодирования : x264 core 128 r2216kMod 198a7ea
Настройки программы : cabac=1 / ref=4 / deblock=1:-3:-3 / analyse=0x3:0x113 / me=umh / subme=9 / psy=1 / fade_compensate=0.00 / psy_rd=1.00:0.15 / mixed_ref=1 / me_range=16 / chroma_me=1 / trellis=2 / 8x8dct=1 / cqm=0 / deadzone=21,11 / fast_pskip=1 / chroma_qp_offset=-3 / threads=9 / lookahead_threads=1 / sliced_threads=0 / nr=0 / decimate=1 / interlaced=0 / bluray_compat=0 / constrained_intra=0 / bframes=6 / b_pyramid=2 / b_adapt=2 / b_bias=0 / direct=3 / weightb=1 / open_gop=0 / weightp=2 / keyint=250 / keyint_min=23 / scenecut=40 / intra_refresh=0 / rc_lookahead=60 / rc=crf / mbtree=1 / crf=18.0000 / qcomp=0.60 / qpmin=10 / qpmax=69 / qpstep=4 / vbv_maxrate=40000 / vbv_bufsize=40000 / crf_max=0.0 / nal_hrd=none / ip_ratio=1.40 / aq=1:1.00
Язык : English
Аудио #1
Идентификатор : 2
Формат : DTS
Формат/Информация : Digital Theater Systems
Идентификатор кодека : A_DTS
Продолжительность : 2 ч. 7 м.
Вид битрейта : Постоянный
Битрейт : 755 Кбит/сек
Каналы : 6 каналов
Расположение каналов : Front: L C R, Side: L R, LFE
Частота : 48,0 КГц
Битовая глубина : 24 бит
Метод сжатия : С потерями
Размер потока : 685 Мбайт (3%)
Язык : Russian
Аудио #2
Идентификатор : 3
Формат : AC-3
Формат/Информация : Audio Coding 3
Расширение режима : CM (complete main)
Идентификатор кодека : A_AC3
Продолжительность : 2 ч. 7 м.
Вид битрейта : Постоянный
Битрейт : 448 Кбит/сек
Каналы : 6 каналов
Расположение каналов : Front: L C R, Side: L R, LFE
Частота : 48,0 КГц
Битовая глубина : 16 бит
Метод сжатия : С потерями
Размер потока : 407 Мбайт (2%)
Язык : Ukrainian
Аудио #3
Идентификатор : 4
Формат : AC-3
Формат/Информация : Audio Coding 3
Расширение режима : CM (complete main)
Идентификатор кодека : A_AC3
Продолжительность : 2 ч. 7 м.
Вид битрейта : Постоянный
Битрейт : 640 Кбит/сек
Каналы : 6 каналов
Расположение каналов : Front: L C R, Side: L R, LFE
Частота : 48,0 КГц
Битовая глубина : 16 бит
Метод сжатия : С потерями
Размер потока : 581 Мбайт (3%)
Язык : English

Скриншоты


[Профиль] [ЛС]
Показать сообщения:    

Текущее время: Сегодня 02:12

Часовой пояс: GMT



Вы не можете начинать темы
Вы не можете отвечать на сообщения
Вы не можете редактировать свои сообщения
Вы не можете удалять свои сообщения
Вы не можете голосовать в опросах
Вы не можете прикреплять файлы к сообщениям
Вы не можете скачивать файлы