Жёлтое море / Hwanghae / The Yellow Sea (2010) BDRip 720p | A | Режиссёрская версия

 
Автор Сообщение

sergej644 ®

Пол:

Стаж: 4 года 11 месяцев

Сообщений: 6046

Откуда: Soviet Union



Награды: Нет

Торрент-статистика

Создавать темы 30-Янв-2015 23:43

[Цитировать]

Название: Жёлтое море
Оригинальное название: Hwanghae / The Yellow Sea
Год выпуска: 2010
Жанр: Триллер, драма, криминал
Выпущено: Южная Корея, Wellmade Starm, Popcorn Films, Showbox/Mediaplex, Fox International Productions (FIP)
Режиссер: Хон Чжин На
В ролях: Чон У Ха, Юн Сок Ким, Сон Ха Чо, Чул Мин Ли, До Вон Квак, Сон Ын Так, Ки Хван Ким, Сэ Хён Ки, Эл Ли, Юн Хон О, Ман Сик Чон, Мин Сон Чон, Дон Хён Ким, Ки Вон Ян, Вон Кил Пэк, Ха Бок Ю, Хи Чжун Ли, Кван Хон На
О фильме: Граница России, Китая и Северной Кореи. Обременённый долгами и живущий на грани нищеты мужчина соглашается стать наёмным убийцей. Это его последний шанс, чтобы обеспечить семью. Он мало знает о своей предполагаемой жертве и представить себе не может, в какое хитросплетение обстоятельств скоро попадёт…
Качество: BDRip 720p
Видео: MPEG-4 AVC, 4865 Кбит/с, 1280x544
Аудио: Русский, корейский (AC3, 6 ch, 448 Кбит/с)
Размер: 5.77 ГБ
Продолжительность: 02:20:35
Перевод: Авторский (Юрий Сербин)
Исходник: FREEDONOR (HDtracker)

Награды

Азиатская киноакадемия, 2011 год
Победитель (1):
Лучшая мужская роль (Ха Чон У)
Номинации (3):
Лучший режиссер (На Хон Чжин)
Лучший композитор (Пён-хун Ли, Jang Yeong Gyu)
Лучшая работа художника

MediaInfo + Лог х264

Общее
Уникальный идентификатор : 221812031632729024655141052731646854143 (0xA6DF718100D858909F30E9DE6D44C3FF)
Полное имя : D:VideoGeltoe more.2010.BDRip.720p.mkv
Формат : Matroska
Версия формата : Version 4 / Version 2
Размер файла : 5,77 Гбайт
Продолжительность : 2 ч. 20 м.
Общий поток : 5878 Кбит/сек
Дата кодирования : UTC 2014-07-23 13:40:46
Программа кодирования : mkvmerge v6.9.1 ('Blue Panther') 64bit built on Apr 18 2014 18:23:38
Библиотека кодирования : libebml v1.3.0 + libmatroska v1.4.1
Видео
Идентификатор : 1
Формат : AVC
Формат/Информация : Advanced Video Codec
Профиль формата : High@L4.1
Параметр CABAC формата : Да
Параметр ReFrames формата : 9 кадров
Идентификатор кодека : V_MPEG4/ISO/AVC
Продолжительность : 2 ч. 20 м.
Битрейт : 4865 Кбит/сек
Ширина : 1280 пикселей
Высота : 544 пикселя
Соотношение сторон : 2,35:1
Режим частоты кадров : Постоянный
Частота кадров : 23,976 кадра/сек
Цветовое пространство : YUV
Субдискретизация насыщенности : 4:2:0
Битовая глубина : 8 бит
Тип развёртки : Прогрессивная
Бит/(Пиксели*Кадры) : 0.291
Размер потока : 4,78 Гбайт (83%)
Заголовок : BDRip -- STarankov
Библиотека кодирования : x264 core 142 r2431 ac76440
Настройки программы : cabac=1 / ref=9 / deblock=1:-1:-1 / analyse=0x3:0x113 / me=umh / subme=10 / psy=1 / psy_rd=1.00:0.15 / mixed_ref=1 / me_range=32 / chroma_me=1 / trellis=2 / 8x8dct=1 / cqm=0 / deadzone=21,11 / fast_pskip=0 / chroma_qp_offset=-3 / threads=6 / lookahead_threads=1 / sliced_threads=0 / nr=0 / decimate=1 / interlaced=0 / bluray_compat=0 / constrained_intra=0 / bframes=8 / b_pyramid=2 / b_adapt=2 / b_bias=0 / direct=1 / weightb=1 / open_gop=0 / weightp=2 / keyint=230 / keyint_min=23 / scenecut=40 / intra_refresh=0 / rc_lookahead=40 / rc=crf / mbtree=0 / crf=19.0 / qcomp=0.60 / qpmin=0 / qpmax=69 / qpstep=4 / vbv_maxrate=40000 / vbv_bufsize=50000 / crf_max=0.0 / nal_hrd=none / filler=0 / ip_ratio=1.40 / pb_ratio=1.30 / aq=1:1.00
Язык : English
Default : Да
Forced : Нет
Аудио #1
Идентификатор : 2
Формат : AC-3
Формат/Информация : Audio Coding 3
Расширение режима : CM (complete main)
Параметр Endianness формата : Big
Идентификатор кодека : A_AC3
Продолжительность : 2 ч. 20 м.
Вид битрейта : Постоянный
Битрейт : 448 Кбит/сек
Каналы : 6 каналов
Расположение каналов : Front: L C R, Side: L R, LFE
Частота : 48,0 КГц
Битовая глубина : 16 бит
Метод сжатия : С потерями
Размер потока : 450 Мбайт (8%)
Заголовок : AVO (Юрий Сербин)
Язык : Russian
Default : Да
Forced : Нет
Аудио #2
Идентификатор : 3
Формат : AC-3
Формат/Информация : Audio Coding 3
Расширение режима : CM (complete main)
Параметр Endianness формата : Big
Идентификатор кодека : A_AC3
Продолжительность : 2 ч. 20 м.
Вид битрейта : Постоянный
Битрейт : 448 Кбит/сек
Каналы : 6 каналов
Расположение каналов : Front: L C R, Side: L R, LFE
Частота : 48,0 КГц
Битовая глубина : 16 бит
Метод сжатия : С потерями
Размер потока : 450 Мбайт (8%)
Заголовок : Original
Язык : Korean
Default : Нет
Forced : Нет
---[Information] [23.07.2014 10:39:38] raw [info]: 1280x544p 1:1 @ 24000/1001 fps (cfr)
---[Information] [23.07.2014 10:39:38] x264 [info]: using SAR=1/1
---[Information] [23.07.2014 10:39:38] x264 [info]: using cpu capabilities: MMX2 SSE2Fast SSSE3 SSE4.2
---[Information] [23.07.2014 10:39:38] x264 [info]: profile High, level 4.1
---[Information] [23.07.2014 20:29:58] x264 [info]: frame I:2229 Avg QP:17.48 size: 83080
---[Information] [23.07.2014 20:29:58] x264 [info]: frame P:44269 Avg QP:18.50 size: 45931
---[Information] [23.07.2014 20:29:58] x264 [info]: frame B:155740 Avg QP:20.66 size: 19472
---[Information] [23.07.2014 20:29:58] x264 [info]: consecutive B-frames: 3.0% 3.7% 7.9% 14.6% 14.4% 43.5% 7.6% 1.7% 3.6%
---[Information] [23.07.2014 20:29:58] x264 [info]: mb I I16..4: 16.3% 69.5% 14.2%
---[Information] [23.07.2014 20:29:58] x264 [info]: mb P I16..4: 3.2% 27.4% 2.1% P16..4: 30.5% 22.9% 9.4% 0.0% 0.0% skip: 4.7%
---[Information] [23.07.2014 20:29:58] x264 [info]: mb B I16..4: 0.2% 3.1% 0.2% B16..8: 44.9% 14.7% 3.8% direct: 8.3% skip:24.7% L0:44.9% L1:47.5% BI: 7.5%
---[Information] [23.07.2014 20:29:58] x264 [info]: 8x8 transform intra:84.2% inter:60.6%
---[Information] [23.07.2014 20:29:58] x264 [info]: coded y,uvDC,uvAC intra: 94.0% 72.6% 43.0% inter: 42.3% 21.5% 2.4%
---[Information] [23.07.2014 20:29:58] x264 [info]: i16 v,h,dc,p: 12% 7% 27% 54%
---[Information] [23.07.2014 20:29:58] x264 [info]: i8 v,h,dc,ddl,ddr,vr,hd,vl,hu: 9% 9% 13% 9% 12% 12% 12% 11% 13%
---[Information] [23.07.2014 20:29:58] x264 [info]: i4 v,h,dc,ddl,ddr,vr,hd,vl,hu: 9% 10% 4% 9% 15% 14% 15% 11% 13%
---[Information] [23.07.2014 20:29:58] avs [info]: AviSynth 2.60, build:May 25 2011 [19:58:41]
---[Information] [23.07.2014 20:29:58] avs [info]: Video colorspace: YV12
---[Information] [23.07.2014 20:29:58] x264 [info]: i8c dc,h,v,p: 39% 27% 20% 14%
---[Information] [23.07.2014 20:29:58] x264 [info]: Weighted P-Frames: Y:4.1% UV:2.0%
---[Information] [23.07.2014 20:29:58] avs [info]: Video resolution: 1280x544
---[Information] [23.07.2014 20:29:58] avs [info]: Video framerate: 24000/1001
---[Information] [23.07.2014 20:29:58] x264 [info]: ref P L0: 44.8% 10.2% 19.1% 7.0% 6.2% 4.0% 3.9% 2.2% 2.3% 0.4% 0.0%
---[Information] [23.07.2014 20:29:58] avs [info]: Video framecount: 202238
---[Information] [23.07.2014 20:29:58] avs4x264 [info]: "x264_64" - --level 4.1 --tune film --crf 19.0 --keyint 230 --bframes 8 --b-adapt 2 --ref 9 --vbv-bufsize 50000 --vbv-maxrate 40000 --no-mbtree --merange 32 --me umh --subme 10 --trellis 2 --no-fast-pskip --sar 1:1 --output "D:RipGeltoe more.2010.BDRipGeltoe more.2010.BDRip.720p.mkv" --frames 202238 --fps 24000/1001 --input-res 1280x544 --input-csp i420
---[Information] [23.07.2014 20:29:58] x264 [info]: ref B L0: 71.7% 12.8% 6.3% 3.4% 2.4% 2.0% 1.1% 0.4%
---[Information] [23.07.2014 20:29:58] x264 [info]: ref B L1: 92.6% 7.4%
---[Information] [23.07.2014 20:29:58] x264 [info]: kb/s:4980.31
---[Information] [23.07.2014 20:29:58] encoded 202238 frames, 5.71 fps, 4980.31 kb/s
--[Information] [23.07.2014 20:29:59] Final statistics
---[Information] [23.07.2014 20:29:59] Constant Quality Mode: Quality 19 computed...
---[Information] [23.07.2014 20:29:59] Video Bitrate Obtained (approximate): 4981 kbit/s
--[Information] [23.07.2014 20:29:59] MediaInfo
---[Information] [23.07.2014 20:29:59] File: D:RipGeltoe more.2010.BDRipGeltoe more.2010.BDRip.720p.mkv

Скриншоты

[Профиль] [ЛС]
Показать сообщения:    

Текущее время: Сегодня 18:50

Часовой пояс: GMT



Вы не можете начинать темы
Вы не можете отвечать на сообщения
Вы не можете редактировать свои сообщения
Вы не можете удалять свои сообщения
Вы не можете голосовать в опросах
Вы не можете прикреплять файлы к сообщениям
Вы не можете скачивать файлы