Журнал Союзмультфильма № 2 / Чего Гитлер хочет / Бей фашистских пиратов / Бей врага на фронте и в тылу / Крепкое рукопожатие (Зинаида Брумберг, Александр Иванов, Валентина Брумберг, Ольга Ходатаева, Иван Иванов-Вано) [1941, агитационный, DVDRip]

 
Автор Сообщение

TorrentFilm ®

Пол:

Стаж: 2 года

Сообщений: 7741



Награды: Нет

Торрент-статистика

Создавать темы 06-Окт-2015 00:09

[Цитировать]

Журнал Союзмультфильма № 2- Страна: СССР
Жанр: мультипликационный фильм-плакат
Продолжительность: 00:08:13
Год выпуска: 1941
Русские субтитры: нет-Режиссёры: Зинаида Брумберг, Александр Иванов, Валентина Брумберг, Ольга Ходатаева, Иван Иванов-Вано- | Релиз: -Описание: Фильм состоит из ряда сюжетов, объединенных темой неминуемой гибели фашизма, посягнувшего на Советский Союз.
1. Чего Гитлер хочет.
2. Бей фашистских пиратов.
3. Бей врага на фронте и в тылу.
4. Крепкое рукопожатие.-Качество: DVDRip
Формат: AVI
Видео: 640x480 (1.33:1), 25 fps, XviD MPEG-4 ~2123 kbps avg, 0.28 bit/pixel
Аудио: 48 kHz, AC3 Dolby Digital, 2/0 (L,R) ch, ~224 kbps
Субтитры: английские вшитые (hardsub)

MediaInfo

GeneralComplete name : Журнал Союзмультфильма №2.1941.XviD.AC3-rutracker.aviFormat : AVIFormat/Info : Audio Video InterleaveFile size : 139 MiBDuration : 8mn 13sOverall bit rate : 2 358 KbpsMovie name : Журнал Союзмультфильма №2.1941.XviD.AC3-rutrackerWriting application : VirtualDubMod 1.5.10.2 (build 2542/release)Comment : РГ Мультфильмы / Rutracker.org
VideoID : 0Format : MPEG-4 VisualFormat profile : Advanced Simple@L5Format settings, BVOP : 2Format settings, QPel : NoFormat settings, GMC : No warppointsFormat settings, Matrix : CustomCodec ID : XVIDCodec ID/Hint : XviDDuration : 8mn 13sBit rate : 2 124 KbpsWidth : 640 pixelsHeight : 480 pixelsDisplay aspect ratio : 4:3Frame rate : 25.000 fpsColor space : YUVChroma subsampling : 4:2:0Bit depth : 8 bitsScan type : ProgressiveCompression mode : LossyBits/(Pixel*Frame) : 0.277Stream size : 125 MiB (90%)Writing library : XviD 65
AudioID : 1Format : AC-3Format/Info : Audio Coding 3Mode extension : CM (complete main)Format settings, Endianness : BigCodec ID : 2000Duration : 8mn 13sBit rate mode : ConstantBit rate : 224 KbpsChannel(s) : 2 channelsChannel positions : Front: L RSampling rate : 48.0 KHzCompression mode : LossyStream size : 13.2 MiB (10%)Alignment : Split accross interleavesInterleave, duration : 40 ms (1.00 video frame)Interleave, preload duration : 500 ms
[Профиль] [ЛС]
Кто просматривает тему:

Форум Тема Автор Размер
Сборники (Зарубежные) (Rock,Classic Rock,Hard Rock) VA - 100 величайших британских рок-альбомов по версии журнала Classic Rock (100) - 1965 - 2005, MP3,tracks, 320 kbps sergej644 12.68 GB
Компьютерная литература (Программирование) DVD приложение к журналу CHIP №1 (Январь) (2016) PC достали все 7.53 GB
Компьютерная литература (Программирование) DVD приложение к журналу CHIP №10 (Октябрь) (2015) PC | Files достали все 7.84 GB
Компьютерная литература (Программирование) DVD приложение к журналу CHIP №10 (Октябрь) (2016) PC | Files достали все 7.26 GB
Компьютерная литература (Программирование) DVD приложение к журналу CHIP №11 (Ноябрь) (2016) PC достали все 7.83 GB
Компьютерная литература (Программирование) DVD приложение к журналу CHIP №12 (Декабрь) (2015) PC | Files достали все 7.92 GB
Компьютерная литература (Программирование) DVD приложение к журналу CHIP №2 (Февраль) (2016) PC | Files достали все 6.49 GB
Компьютерная литература (Программирование) DVD приложение к журналу CHIP №4 (Апрель) (2016) PC | Files достали все 6.1 GB
Показать сообщения:    

Текущее время: Сегодня 00:20

Часовой пояс: GMT



Вы не можете начинать темы
Вы не можете отвечать на сообщения
Вы не можете редактировать свои сообщения
Вы не можете удалять свои сообщения
Вы не можете голосовать в опросах
Вы не можете прикреплять файлы к сообщениям
Вы не можете скачивать файлы