Жуковский (Л. Сааков, Н. Трахтенберг, Г. Сеид-Заде) [1950, СССР, исторический, биографический, DVD5]

 
Автор Сообщение

TorrentFilm ®

Пол:

Стаж: 2 года

Сообщений: 7741



Награды: Нет

Торрент-статистика

Создавать темы 01-Янв-2016 00:26

[Цитировать]

Жуковский
Страна: СССР
Студия: Мосфильм
Жанр: исторический, биографический
Год выпуска: 1950
Продолжительность: 01:23:43
Перевод: Не требуется
Cубтитры: нет
Оригинальная аудиодорожка: русский
Режиссеры: Л. Сааков, Н. Трахтенберг, Г. Сеид-Заде
В главных ролях:
• Юрий Юровский — Николай Жуковский
• Илья Судаков — Дмитрий Менделеев
• Владимир Белокуров — Сергей Чаплыгин
• Владимир Дружников — Пётр Нестеров

В ролях:

• Софья Гиацинтова — Анна Николаевна, мать Жуковского
• Галина Фролова — Верочка, сестра Жуковского
• Олег Фрелих — Александр Григорьевич Столетов, профессор Московского университета
• Александр Хохлов — профессор Московского университета
• Владимир Грибков — профессор Московского университета
• Борис Битюков — Сергей Сергеевич Неждановский, ученик Жуковского
• Анатолий Чемодуров — Александр Рыбаков, ученик Жуковского
• Андрей Пунтус — Голубинский, ученик Жуковского
• Георгий Юматов — Касьянов, ученик Жуковского
• Михаил Названов — Дмитрий Павлович Рябушинский
• Всеволод Аксёнов — Великий князь
• Татьяна Барышева — Арина, прислуга Жуковских
• Григорий Шпигель — прохожий с дамой
• Караман Мгеладзе — ученик Жуковского
• Ростислав Плятт — журналист
• Глеб Романов — Неклюдов
• Борис Смирнов — ученик Жуковского
• Всеволод Санаев — эпизод
• Владимир Уральский — служитель
• Лаврентий Масоха — пилот
• Александр Смирнов — адъютант
• Николай Боголюбов — Александр Можайский
• Евгений Моргунов — эпизод
• Георгий Гумилевский — продавец газет (нет в титрах)
Описание: Биографический фильм о жизни и деятельности выдающегося учёного, основоположника современной аэродинамики Николая Егоровича Жуковского. На заре авиации, когда многие авиаторы погибали из-за несовершенства летательных аппаратов, опыты Жуковского казались необычайно рискованными. Но учёный нашёл отважного союзника — военного лётчика Петра Нестерова, впервые в мире выполнившего знаменитую «мёртвую петлю», часто называемой «петлёй Нестерова».
Согласно сюжету фильма, Николай Егорович заложил основы современной аэродинамики и выполнил расчёты, благодаря которым удалось построить безопасную конструкцию воздухоплавательного аппарата.
В одном из эпизодов фильма в беседе Д. И. Менделеева и Жуковского, Дмитрий Иванович делится воспоминаниями некоего солдата, который якобы лично наблюдал успешные испытания самолёта Можайского. Царское правительство России отказалось вести разработку успешных опытов по полётам аппаратов тяжелее воздуха по причине косности чиновников и полной зависимости от мнения иностранных авторитетов.
Меню: присутствует
Сэмпл: https://yadi.sk/i/O5n5z1NvbTuRS
Тип релиза: DVD5
Контейнер: DVD-Video
Видео: MPEG2, PAL 4 : 3, 720x576, 50 Hz, VBR
Аудио: Russian, AC3, 48000 Hz, 16 bits, 1 channel(s), 192 Kbps

DVD-Info

Title: Жуковский
Size: 1.88 Gb ( 1 973 926,00 KBytes ) - DVD-5
Enabled regions: 1, 2, 3, 4, 5, 6, 7, 8
VTS_01 :
Play Length: 00:00:08+01:23:38
Video: PAL 4:3 (720x576) VBR
Audio:
Russian (Dolby AC3, 1 ch)
* Menus Information *
VIDEO_TS Menu
Video:
PAL 4:3 (720x576) VBR
English Language Unit :
Title Menu
VTS_01 Menu
Video:
PAL 4:3 (720x576) VBR
English Language Unit :
Root Menu

Media-Info

Общее
Полное имя : C:\Downloads\Жуковский\VIDEO_TS\VTS_01_1.VOB
Формат : MPEG-PS
Размер файла : 1023 Мбайт
Продолжительность : 43 м.
Общий поток : 3285 Кбит/сек
Видео
Идентификатор : 224 (0xE0)
Формат : MPEG Video
Версия формата : Version 2
Профиль формата : Main@Main
Параметр BVOP формата : Да
Параметр матрицы формата : Выборочная
Параметр GOP формата : Variable
Format_Settings_PictureStructure : Frame
Продолжительность : 43 м.
Битрейт : 3028 Кбит/сек
Максимальный битрейт : 6750 Кбит/сек
Ширина : 720 пикселей
Высота : 576 пикселей
Соотношение сторон : 4:3
Частота кадров : 25,000 кадров/сек
Стандарт вещания : PAL
Цветовое пространство : YUV
Субдискретизация насыщенности : 4:2:0
Битовая глубина : 8 бит
Тип развёртки : Чересстрочная
Порядок развёртки : Верхнее поле первое
Метод сжатия : С потерями
Бит/(Пиксели*Кадры) : 0.292
Временной код первого кадра : 00:00:00:00
Оригинал временного кода : Group of pictures header
Размер потока : 943 Мбайт (92%)
Основные цвета : BT.601 NTSC
Характеристики трансфера : BT.601
Коэффициенты матрицы : BT.601
Аудио
Идентификатор : 189 (0xBD)-128 (0x80)
Формат : AC-3
Формат/Информация : Audio Coding 3
Расширение режима : CM (complete main)
Параметр Endianness формата : Big
Режим смешивания : DVD-Video
Продолжительность : 15 с.
Вид битрейта : Постоянный
Битрейт : 192 Кбит/сек
Каналы : 1 канал
Расположение каналов : Front: C
Частота : 48,0 КГц
Битовая глубина : 16 бит
Метод сжатия : С потерями
Размер потока : 352 Кбайт (0%)

Скриншот меню

Скриншоты



Сканы обложки и диска


[Профиль] [ЛС]
Кто просматривает тему:

Форум Тема Автор Размер
Зарубежные мультфильмы A Bug's Life / Приключения Флика / Жизнь жуков (1998) BDRip 720p от HDClub | D, 2 x P, P2, A sergej644 4.38 GB
Фантастика и фэнтези Антон Жуков – Пять погибших обезьян (2013-2015) MP3 Swager 1.45 GB
Фантастика и фэнтези В семье не без подвоха (Жукова Юлия) [2015, Фэнтези, аудиокнига, MP3, 128 kbps, Вета] Magnat 891 MB
Отечественные мультфильмы Ванька Жуков (Леонид Зарубин) [1981 г., мультфильм, DVB] TorrentFilm 302 MB
Научная и техническая литература Иван Жуков - Планшет с нуля! Все типы планшетов в одной книге (2016) PDF Garik014 10 MB
Научная и техническая литература Ирина Жукова, Наталья Снытко - Ручная вышивка. Cамый полный и понятный самоучитель (2014) PDF достали все 29 MB
Документальные HD Секты и Лжепророки: Культ Наличности (Максим Жуковский) [2015, Документальный, HDTV 720p] TorrentFilm 1.32 GB
Разная литература Татьяна Жукова - Малая энциклопедия консервирования (2016) FB2, RTF достали все 11 MB
Показать сообщения:    

Текущее время: Сегодня 08:34

Часовой пояс: GMT



Вы не можете начинать темы
Вы не можете отвечать на сообщения
Вы не можете редактировать свои сообщения
Вы не можете удалять свои сообщения
Вы не можете голосовать в опросах
Вы не можете прикреплять файлы к сообщениям
Вы не можете скачивать файлы